<?xml version="1.0" standalone="no"?>
<!DOCTYPE svg PUBLIC "-//W3C//DTD SVG 1.1//EN" "http://www.w3.org/Graphics/SVG/1.1/DTD/svg11.dtd" >
<!--
2013-9-30: Created.
-->
<svg>
<metadata>
Created by iconfont
</metadata>
<defs>

<font id="wk" horiz-adv-x="1024" >
  <font-face
    font-family="wk"
    font-weight="500"
    font-stretch="normal"
    units-per-em="1024"
    ascent="896"
    descent="-128"
  />
    <missing-glyph />
    
    <glyph glyph-name="position" unicode="&#59086;" d="M512 534.00000029c-82.87499971 0-150.00000029-67.12499971-150.00000029-150.00000029s67.12499971-150.00000029 150.00000029-150.00000029 150.00000029 67.12499971 150.00000029 150.00000029-67.12499971 150.00000029-150.00000029 150.00000029z m335.25-112.5C829.99999971 577.87500029 705.87500029 701.99999971 549.50000029 719.25V796.49999971h-75.00000058v-77.24999971C318.12499971 701.99999971 194.00000029 577.87500029 176.75 421.50000029H99.50000029v-75.00000058h77.24999971c17.25000029-156.375 141.37499971-280.50000029 297.74999971-297.74999971V-28.499999709999997h75.00000058v77.24999971c156.375 17.25000029 280.50000029 141.37499971 297.74999971 297.74999971H924.49999971v75.00000058h-77.24999971zM512 121.49999971c-144.93750029 0-262.50000029 117.5625-262.50000029 262.50000029s117.5625 262.50000029 262.50000029 262.50000029 262.50000029-117.5625 262.50000029-262.50000029-117.5625-262.50000029-262.50000029-262.50000029z"  horiz-adv-x="1024" />

    
    <glyph glyph-name="more" unicode="&#58895;" d="M175.79019 272.024719c-61.737086 0-111.975281 50.242288-111.975281 111.974257 0 61.737086 50.238195 111.975281 111.975281 111.975281 61.730946 0 111.974257-50.238195 111.974257-111.975281C287.764448 322.26700700000004 237.521137 272.024719 175.79019 272.024719L175.79019 272.024719zM511.708869 272.024719c-61.730946 0-111.975281 50.242288-111.975281 111.974257 0 61.737086 50.244334 111.975281 111.975281 111.975281 61.737086 0 111.975281-50.238195 111.975281-111.975281C623.683127 322.26700700000004 573.445956 272.024719 511.708869 272.024719L511.708869 272.024719zM847.632665 272.024719c-61.737086 0-111.975281 50.242288-111.975281 111.974257 0 61.737086 50.238195 111.975281 111.975281 111.975281 61.730946 0 111.969141-50.238195 111.969141-111.975281C959.601806 322.26700700000004 909.363611 272.024719 847.632665 272.024719L847.632665 272.024719zM847.632665 272.024719"  horiz-adv-x="1024" />

    
    <glyph glyph-name="filter-simple" unicode="&#58884;" d="M208.02864583 728.0625L386.55208332 455.95124999A33.75 33.75 0 0 0 392.08333333 437.4375v-333.9825l139.6875-80.9053125V437.4375a33.75 33.75 0 0 0 5.53125001 18.51375001L715.82552083 728.0625h-507.796875zM324.58333333 427.3546875L117.30208332 743.29874999C102.57677083 765.7425000000001 118.67739583 795.5625 145.52083333 795.5625h632.8125c26.8434375 0 42.9440625-29.8190625 28.21875001-52.26375001L599.27083333 427.3546875V-36c0-26.0015625-28.1653125-42.2371875-50.6653125-29.205l-207.1875 120A33.75 33.75 0 0 0 324.58333333 84V427.3546875zM733.68020833 476.8125H939.58333333c45 0 45-67.5 0-67.5H733.68020833c-45 0-45 67.5 0 67.5z m0-121.875H939.58333333c45 0 45-67.5 0-67.5H733.68020833c-45 0-45 67.5 0 67.5z m0-121.875H939.58333333c45 0 45-67.5 0-67.5H733.68020833c-45 0-45 67.5 0 67.5z"  horiz-adv-x="1024" />

    
    <glyph glyph-name="download" unicode="&#59171;" d="M492.3125 139.3125c2.8125-2.8125 5.625-5.625 8.4375-5.625 2.8125 0 5.625-2.8125 11.25-2.8125 2.8125 0 8.4375 0 11.25 2.8125 2.8125 2.8125 5.625 2.8125 8.4375 5.625l239.0625 239.0625c11.25 11.25 11.25 28.125 0 39.375-11.25 11.25-28.125 11.25-39.375 0L540.125 226.5V749.625c0 16.875-11.25 28.125-28.125 28.125s-28.125-11.25-28.125-28.125v-523.125l-191.25 191.25c-11.25 11.25-28.125 11.25-39.375 0-11.25-11.25-11.25-28.125 0-39.375l239.0625-239.0625zM905.75 327.75c-16.875 0-28.125-11.25-28.125-28.125v-225c0-16.875-11.25-28.125-28.125-28.125H174.5c-16.875 0-28.125 11.25-28.125 28.125v225c0 16.875-11.25 28.125-28.125 28.125s-28.125-11.25-28.125-28.125v-225c0-47.8125 36.5625-84.375 84.375-84.375h675c47.8125 0 84.375 36.5625 84.375 84.375v225c0 16.875-11.25 28.125-28.125 28.125z"  horiz-adv-x="1024" />

    
    <glyph glyph-name="icon-opportunities" unicode="&#58934;" d="M384.12481369 609.031823A146.97623858 146.97623858 0 0 1 90.12546884 609.031823a145.28901132 145.28901132 0 0 1 41.14959769-101.60857315 382.48503965 382.48503965 0 0 1-10.63890555-90.03231985 387.87479351 387.87479351 0 0 1 184.14210525-330.13412842l29.62021207 120.40240979a273.09647434 273.09647434 0 0 0-98.4215885 209.73171863 283.73537905 283.73537905 0 0 0 3.70252579 45.03959334A146.74190185 146.74190185 0 0 1 384.12481369 609.031823z m126.12023574 82.01799014a275.6741825 275.6741825 0 0 0 139.43058399-37.77514316 147.11684079 147.11684079 0 1 1 137.08721256 93.26617218 149.97575418 149.97575418 0 0 1-54.03813931-10.21709811A391.71792233 391.71792233 0 0 1 352.58303846 772.7865997l67.20788451-97.2499032a264.0979292 264.0979292 0 0 0 90.45412646 15.51311664z m274.12755745-286.17248501a272.67466773 272.67466773 0 0 0-145.94515549-229.65037372 146.41382977 146.41382977 0 1 1 4.68674286-123.21445468 388.99961197 388.99961197 0 0 1 257.11468258 365.56590015c0 8.57673852-0.28120441 17.24721157-1.0310831 25.8239501l-114.73145151-38.52502185z"  horiz-adv-x="1024" />

    
    <glyph glyph-name="invalid" unicode="&#58964;" d="M512-64.64999999999998c-248.175 0-450 201.375-450 449.1S263.825 833.325 512 833.325s450-201.375 450-449.1-201.825-448.875-450-448.875z m0 793.125c-190.35 0-344.925-154.35-344.925-344.025S321.875 40.424999999999955 512 40.424999999999955s344.925 154.35 344.925 344.025S702.35 728.475 512 728.475zM199.637 146.96699999999998l550.7775 549.225 74.19375-74.4075-550.7775-549.2205z"  horiz-adv-x="1025" />

    
    <glyph glyph-name="task" unicode="&#58956;" d="M397.4375 709.03125h228.84375c21.5625 0 39 17.4375 39 39V805.875h-306.5625v-57.84375c-0.09375-21.46875 17.25-38.90625 38.71875-39zM792.21875 805.875h-55.59375v-103.21875c0-36.09375-29.25-65.34375-65.34375-65.34375h-318.75c-36 0.09375-65.25 29.34375-65.25 65.34375V805.875h-55.5c-62.4375 0-113.0625-50.625-113.0625-113.0625v-617.71875c0-62.4375 50.625-113.0625 113.0625-113.0625h560.34375c62.4375 0 113.0625 50.625 113.0625 113.0625V692.8125C905.1875 755.25 854.65625 805.875 792.21875 805.875zM601.25 208.21875h-280.3125c-19.40625 0.84375-34.40625 17.25-33.65625 36.65625v6.46875c-1.3125 19.40625 13.40625 36.09375 32.71875 37.40625H599.9375c19.40625-0.84375 34.40625-17.25 33.65625-36.65625v-0.84375l0.375-5.625c1.3125-19.3125-13.40625-36.09375-32.71875-37.40625z m135.9375 161.15625H324.78125c-20.625 0.09375-37.3125 16.78125-37.40625 37.40625v5.8125c0.09375 20.625 16.78125 37.3125 37.40625 37.40625h411.84375c20.625-0.09375 37.3125-16.78125 37.40625-37.40625l0.5625-5.8125c-0.09375-20.53125-16.78125-37.3125-37.40625-37.40625z"  horiz-adv-x="1024" />

    
    <glyph glyph-name="address-book" unicode="&#59954;" d="M816.8768 806.4h-602.4c-48.672 0-88.1472-39.4944-88.1472-88.1376v-113.8848h17.6256c19.4112 0 35.2608-17.328 35.2608-36.7296 0-19.3728-15.8496-36.7392-35.2608-36.7392H126.3296v-110.1888h17.6256c19.4112 0 35.2608-17.328 35.2608-36.7296 0-19.3632-15.8496-36.7296-35.2608-36.7296H126.3296v-110.1792h17.6256c19.4112 0 35.2608-17.328 35.2608-36.7392 0-19.584-15.8496-36.7296-35.2608-36.7296H126.3296v-113.856c0-48.672 39.4752-88.1568 88.1568-88.1568h602.3904c48.6528 0 80.7936 39.4848 80.7936 88.1568V718.2719999999999c0 48.6432-32.1408 88.1376-80.7936 88.1376zM698.7392 107.01120000000003c-42.3072-24.4992-158.3136 40.7424-248.4192 197.28-90.096 156.576-88.5216 290.0352-46.0224 314.544 36.6624 21.1584 85.5168 62.4 120.7776-17.7888 35.2512-80.3904 4.4064-91.872-33.504-113.712-26.4384-15.3504 3.0144-80.1024 36.336-138.0576 33.3312-58.0032 74.5536-116.0064 101.0112-100.6848 37.9104 22.0128 63.2736 43.1712 114.96-27.6576 51.6576-70.9152-8.4768-92.5824-45.1392-113.9232z"  horiz-adv-x="1024" />

    
    <glyph glyph-name="announcement" unicode="&#58923;" d="M795.04111701 97.32883896999999a36.06841901 36.06841901 0 0 0-51.60666606 6.04655803 38.2479917 38.2479917 0 0 0 5.97624913 52.87222431 303.17158384 303.17158384 0 0 1 111.08791817 235.74543584c0 92.80762783-41.27127072 178.6546832-110.66606542 235.53450907a38.2479917 38.2479917 0 0 0-5.83563126 52.80191538 36.06841901 36.06841901 0 0 0 51.53635712 5.97624911A379.10509662 379.10509662 0 0 0 933.83070559 391.99305715a379.10509662 379.10509662 0 0 0-138.78958859-294.66421819zM703.78028315 215.23671176000005a36.06841901 36.06841901 0 0 0-51.53635713 6.04655722 38.2479917 38.2479917 0 0 0 5.9059402 52.8722243c34.87316886 28.40475888 55.54395868 71.36344061 55.54395868 117.83756387 0 46.4038135-20.53017197 89.29218713-55.3330319 117.76725413A38.2479917 38.2479917 0 0 0 652.59547067 562.6325355700001a36.06841901 36.06841901 0 0 0 51.53635629 5.97624913 227.51930511 227.51930511 0 0 0 82.9643942-176.61572755c0-69.67602961-31.07649325-134.28982452-83.31593802-176.75634539zM160.43380914 594.9042789800001h140.61761747L462.83199558 784.38651837a67.07460334 67.07460334 0 0 0 99.41665567-1.19524933c12.86651184-14.06176199 20.03801028-32.90452212 20.03801028-52.59098858v-693.24485532C582.28666152-4.12677154000005 550.78831553-37.875 511.97785239-37.875a68.19954456 68.19954456 0 0 0-50.6926508 23.13159824L301.05142661 173.05142661000002H160.43380914c-38.81046231 0-70.30880915 24.39715649-70.30880914 65.94966211V524.5954706699999c0 41.55250562 31.49834602 70.30880915 70.30880914 70.30880831z"  horiz-adv-x="1024" />

    
    <glyph glyph-name="office" unicode="&#58920;" d="M857.15401797 656.65178595H742.22321405V731.26339297C742.16294608 772.24553594 707.56919607 805.875 665.44196406 805.875H358.55803594c-42.1875 0-76.72098202-33.62946405-76.72098202-74.61160702v-74.61160703H166.84598203C124.65848203 656.65178595 90.125 623.0825890599999 90.125 582.04017892V470.18303595h843.75V582.04017892c0 40.98214298-34.41294608 74.61160702-76.72098202 74.61160703z m-191.65178595 0H358.49776798v56.04910702c0 11.20982108 7.71428594 18.68303594 19.28571405 18.68303595h268.37276797c11.51116095 0 19.28571405-7.47321405 19.28571405-18.68303595v-56.04910702z m-19.28571404-279.82366095c0-70.93526798-61.41294608-130.60044608-134.27678595-130.60044608-72.92410702 0-134.27678595 59.66517892-134.27678595 130.60044608 0 7.53348202 0 11.20982108 3.796875 18.68303595H90.125v-358.77455393C90.125-4.245535939999968 124.65848203-37.875 166.84598203-37.875h690.30803595c42.1875 0 76.72098202 33.62946405 76.72098202 74.61160702V395.390625H642.41964298a32.90625 32.90625 0 0 0 3.796875-18.5625zM568.29017892 384H455.70982108C451.73214298 371.88616093999997 451.73214298 304.56696405 512 304.56696405S572.26785702 371.88616093999997 568.29017892 384z"  horiz-adv-x="1024" />

    
    <glyph glyph-name="state" unicode="&#58954;" d="M768 683.885714H73.142857c-29.257143 0-51.2 21.942857-51.2 51.2v7.314286c0 29.257143 21.942857 51.2 51.2 51.2h702.171429c29.257143 0 51.2-21.942857 51.2-51.2v-7.314286c-7.314286-29.257143-29.257143-51.2-58.514286-51.2zM548.571429 384H73.142857c-29.257143 0-58.514286 21.942857-58.514286 51.2 0 29.257143 21.942857 51.2 51.2 51.2h475.428572c29.257143 0 51.2-21.942857 51.2-51.2 7.314286-29.257143-14.628571-51.2-43.885714-51.2zM292.571429 76.79999999999995H73.142857c-29.257143 0-51.2 21.942857-51.2 58.514286-7.314286 29.257143 21.942857 51.2 51.2 51.2h219.428572c29.257143 0 51.2-21.942857 51.2-51.2 0-29.257143-21.942857-58.514286-51.2-58.514286zM958.171429 354.74285699999996L621.714286 18.285713999999984c-21.942857-21.942857-58.514286-21.942857-80.457143 0-21.942857 21.942857-21.942857 58.514286 0 80.457143L877.714286 427.885714c21.942857 21.942857 58.514286 21.942857 80.457143 0 21.942857-14.628571 21.942857-51.2 0-73.142857zM541.257143 18.285713999999984L387.657143 171.885714c-21.942857 21.942857-21.942857 58.514286 0 80.457143 21.942857 21.942857 58.514286 21.942857 80.457143 0l153.6-153.6c21.942857-21.942857 21.942857-58.514286 0-80.457143-21.942857-21.942857-58.514286-21.942857-80.457143 0z"  horiz-adv-x="1024" />

    
    <glyph glyph-name="receive" unicode="&#58902;" d="M471.77177276 707.7732044100001H337.72330128c-9.26164951 0-16.37970205 2.12723437-21.33779415 6.4144283a33.92120126 33.92120126 0 0 0-10.43981016 16.2815221 76.76042256 76.76042256 0 0 0-2.97812812 22.20505134c0 8.23075927 0.65453378 15.95425518 1.99632744 23.20321466 0.65453378 7.232596 1.97996396 15.1197249 3.95992793 23.67775106 1.99632742 8.55802617 4.81082167 15.79062217 8.44348271 21.7141506 3.64902451 5.92352842 8.44348272 9.86709375 14.39973897 11.84705683 5.95625537 1.96360049 13.25430441 0.32726689 21.84505664-4.94172774 9.93254677-5.92352842 21.19052375-12.33795761 33.75756828-19.24328674 12.583408-6.9053291 24.82318476-13.81065819 36.75205898-20.73234988 11.91251074-6.9053291 22.9904912-13.15612441 33.25030486-18.75238682 10.27617714-5.57989893 18.04876259-10.03072675 23.33412071-13.31975742 6.62715263-4.59809824 11.58524385-9.70345988 14.89063884-15.29972226 3.32175762-5.57989893 4.64718867-10.84889355 3.97629144-15.79062217-0.65453378-4.92536513-3.30539414-9.03256347-7.93621934-12.33795677-4.63082519-3.27266809-11.25797695-4.92536513-19.86509355-4.92536509z m77.46404589 0.98179979h133.05030819c9.26164951 0 16.37970205 2.12723437 21.35415764 6.41442919 4.95809209 4.28719483 8.44348272 9.70345988 10.42344667 16.28152208 1.97996396 6.59442567 2.97812722 13.99065469 2.97812725 22.20505051 0 8.23075927-0.32726689 15.97061865-0.98179981 23.20321461-1.34179365 7.232596-2.83085771 14.97245537-4.48355478 23.18685118a64.50428144 64.50428144 0 0 1-7.93621933 21.2232507c-3.64902451 5.92352842-8.44348272 9.86709375-14.3997381 11.84705683-5.95625537 1.96360049-13.25430441 0.65453378-21.84505752-3.95992793-9.93254677-5.90716494-21.19052375-12.32159413-33.75756826-19.24328586-12.583408-6.9053291-25.00318213-13.81065819-37.24295889-20.71598728-12.23977763-6.9053291-23.49775459-13.15612441-33.75756825-18.75238594-10.25981366-5.5962615-17.70513223-10.03072675-22.35232091-13.31975832-7.28168555-4.61446174-12.56704453-9.71982334-15.87243867-15.29972137-3.32175762-5.5962615-4.64718867-10.86525701-3.97629141-15.79062218 0.65453378-4.94172862 3.30539414-9.04892608 7.93621935-12.33795761 4.63082519-3.28903153 11.58524385-4.94172862 20.86325683-4.94172861z m-91.3565206-65.1260883H169.91726065c-21.19052375 0-34.91936544-3.46902803-41.2192503-10.37435711C122.4144881 626.3492297 119.27272697 615.3367031299999 119.27272697 600.20061474v-86.85660324c0-16.44515596 3.46902803-28.61947969 10.42344753-36.52297205 6.95441865-7.88712891 20.68326035-11.83069424 41.20288684-11.83069424h286.98023671V643.62891593z m108.22712343 0h283.98574512c21.19052375 0 35.59026182-4.12356182 43.19921515-12.3379576 7.60895244-8.23075927 11.42161083-19.9141831 11.42160995-35.05027149v-84.87663925c0-15.79062217-3.46902803-27.45768253-10.42344668-35.01754453-6.95441865-7.57622549-20.68326035-11.35615693-41.20288682-11.35615782H566.10642148V643.62891593z m-108.22712343-230.95216492H153.03029521v-373.05139835c0-33.5612083 9.60527989-59.56255372 28.79947617-77.97131016C201.02396854-56.77107656999999 230.82160801-65.98363653000001 271.18996542-65.98363653000001h186.68933263V412.67675097z m108.22712343 0h303.86720215v-370.10599806c-0.67089727-33.54484482-10.27617714-60.03709013-28.79947617-79.44400985C822.61812059-56.28017666000005 793.14774805-65.98363653000001 752.77939062-65.98363653000001H566.10642148V412.67675097z"  horiz-adv-x="1024" />

    
    <glyph glyph-name="alloc" unicode="&#58910;" d="M950.784 237.56799999999998h-36.352V384h-365.568v73.216h109.568c40.448 0 73.216 32.768 73.216 73.216v146.432c0 40.448-32.768 73.216-73.216 73.216h-292.352c-40.448 0-73.216-32.768-73.216-73.216v-146.432c0-40.448 32.768-73.216 73.216-73.216h109.568V384h-365.568v-146.432h-36.352c-40.448 0-73.216-32.768-73.216-73.216v-73.216c0-40.448 32.768-73.216 73.216-73.216h146.432c40.448 0 73.216 32.768 73.216 73.216v73.216c0 40.448-32.768 73.216-73.216 73.216h-36.352v73.216H476.16v-73.216h-36.352c-40.448 0-73.216-32.768-73.216-73.216v-73.216c0-40.448 32.768-73.216 73.216-73.216h146.432c40.448 0 73.216 32.768 73.216 73.216v73.216c0 40.448-32.768 73.216-73.216 73.216h-36.352v73.216H841.216v-73.216H804.352c-40.448 0-73.216-32.768-73.216-73.216v-73.216c0-40.448 32.768-73.216 73.216-73.216h146.432c40.448 0 73.216 32.768 73.216 73.216v73.216c0 40.448-32.768 73.216-73.216 73.216z"  horiz-adv-x="1024" />

    
    <glyph glyph-name="transform" unicode="&#58983;" d="M704.84015322 62.56803047000005H447.70409229v128.56803135h257.13606093V319.70409228999995l257.13606182-192.85204659-257.13606182-192.8520457v128.56803047zM260.89474326 400.05911133A257.13606182 257.13606182 0 1 0 447.70409229 319.70409228999995a257.13606182 257.13606182 0 0 1-257.13606182-257.13606182H62c0 145.2818751 80.35501904 271.7928167 198.89474326 337.49108086zM447.70409229 448.27212276a128.56803047 128.56803047 0 1 1 0 257.13606181 128.56803047 128.56803047 0 0 1 0-257.13606181z"  horiz-adv-x="1024" />

    
    <glyph glyph-name="close" unicode="&#58931;" d="M858.92 667.86L228.2 37.08000000000004c-17.46-17.4-45.72-17.4-63.12 0s-17.4 45.66 0 63.12L795.8 730.92c17.46 17.4 45.72 17.4 63.12 0 17.4-17.4 17.4-45.66 0-63.06zM858.92 37.08000000000004c-17.4-17.4-45.66-17.4-63.12 0L165.08 667.86c-17.4 17.46-17.4 45.66 0 63.06 17.4 17.4 45.66 17.4 63.12 0L858.92 100.20000000000005c17.4-17.46 17.4-45.72 0-63.12z"  horiz-adv-x="1024" />

    
    <glyph glyph-name="unlock" unicode="&#58882;" d="M737.22343555 834q42.89970234 0 82.67130088-16.08738838t70.60575937-44.24031738 49.60278018-65.69016856 18.76861933-80.43694101l0-132.27408105-108.14299893 0 0 107.24925497q0 56.30585888-31.72790477 87.5868917t-85.35253184 31.28103281q-48.26216513 0-77.75571006-31.28103281t-29.49354492-87.5868917l0-109.03674287-112.61171778 0 0 134.06156895q0 42.89970234 16.98113233 80.43694101t46.92154922 65.69016856 70.60575937 44.24031738 88.92750762 16.08738838zM735.43594854 224.46673299999998l0-76.8619661 0-42.00595841q0-24.13108213-8.49056573-45.58093329t-23.23733906-36.64349561-34.85600771-24.13108212-44.24031739-8.9374377l-452.23435986 0q-24.13108213 0-43.79344629 8.49056572t-33.96226377 23.23733906-21.89672314 34.40913574-7.59682266 42.0059584l0 284.21052628q0 25.02482607 17.4280043 42.00595839t40.66534248 16.98113232l553.2274081 0q25.02482607 0 42.00595841-16.98113232t16.98113232-42.00595839l0-158.19265109z"  horiz-adv-x="1024" />

    
    <glyph glyph-name="edit-pen" unicode="&#58946;" d="M933.875 647.671875c0-15.8203125-5.2734375-26.3671875-15.8203125-36.9140625l0 0L849.5 542.203125 670.203125 721.5l68.5546875 68.5546875 0 0C749.3046875 800.6015625 759.8515625 805.875 775.671875 805.875c15.8203125 0 26.3671875-5.2734375 36.9140625-15.8203125l0 0 105.46875-105.46875 0 0C928.6015625 674.0390625 933.875 663.4921875 933.875 647.671875zM596.375 647.671875L775.671875 468.375l-490.4296875-490.4296875 0 0C274.6953125-32.6015625 264.1484375-37.875 248.328125-37.875L142.859375-37.875c-31.640625 0-52.734375 21.09375-52.734375 52.734375l0 105.46875c0 15.8203125 5.2734375 26.3671875 15.8203125 36.9140625l0 0L596.375 647.671875z"  horiz-adv-x="1024" />

    
    <glyph glyph-name="sold-out" unicode="&#58894;" d="M884.717 87.17100000999994H140.77199999c-41.113 0-74.39900001 33.339-74.39899999 74.39899999V347.547l245.494 334.77099999h409.172l238.07699998-334.77099999V161.57000000000005c0.001-41.06000001-33.335-74.39900001-74.39899998-74.39899999zM698.69200001 644.6800000000001H334.21100001L123.557 348.06600000000003l151.961-0.935 81.92099999-111.366 319.47900001-0.726 76.266 111.675 153.82799999 1.351-208.32 296.615z m-292.88-222.682l90.62499999 2.281V570.74300002c0 20.58400001 14.362 37.232 34.897 37.23199998 20.53200001 0 32.559-16.647 32.559-37.23200001v-146.46399999l90.62899999-2.281-123.18899999-141.853-125.52099999 141.853z"  horiz-adv-x="1024" />

    
    <glyph glyph-name="eye" unicode="&#58909;" d="M514.0634375 738.8409375c-255.3478125 0-462.999375-155.709375-462.999375-347.2190625s207.6515625-347.2190625 462.999375-347.2190625 462.999375 155.8303125 462.999375 347.2190625c0 191.38875-207.7734375 347.2190625-462.999375 347.2190625zM514.0634375 217.9509375c-95.8771875 0.121875-173.5490625 77.7928125-173.67 173.67 0 95.75625 77.9146875 173.67 173.67 173.67 95.75625 0 173.67-77.9146875 173.67-173.67-0.241875-95.8771875-77.9146875-173.5490625-173.67-173.67z"  horiz-adv-x="1024" />

    
    <glyph glyph-name="reset" unicode="&#58885;" d="M831.14666666 695.04c-80.64 80.64-192 130.56-314.88 130.56C274.34666666 825.6 74.66666666 629.76 74.66666666 384c0-245.76 199.68-441.6 441.6-441.6 218.88 0 399.36 161.28 437.76 368.64L804.26666666 311.03999999999996c-34.56-126.72-149.76-222.72-284.16-222.72-161.28 0-295.68 130.56-295.68 295.68 0 161.28 130.56 295.68 295.68 295.68 80.64 0 153.6-34.56 207.36-88.32l-134.4-134.4 368.64 0L961.70666666 825.6 831.14666666 695.04z"  horiz-adv-x="1024" />

    
    <glyph glyph-name="shelves" unicode="&#58896;" d="M886.671 84.24199999999996H137.33c-41.411 0-74.939 33.578-74.939 74.939V346.558l247.276 337.2h412.14l239.804-337.2v-187.376c0-41.362-33.578-74.94-74.939-74.94zM699.297 645.793H332.12L119.99 346.97299999999996l153.064-0.885 82.514-112.176 321.796-0.732 76.82 112.488 154.944 1.304-209.831 298.821zM563.519 309.057c0-20.677-12.115-37.495-32.796-37.495-20.683 0-35.093 16.818-35.093 37.495V456.59l-91.338 2.348L530.724 601.77 654.86 458.938l-91.339-2.348v-147.533z"  horiz-adv-x="1024" />

    
    <glyph glyph-name="lock" unicode="&#58976;" d="M332 384V504c0 99.24 80.76 180 180 180s180-80.76 180-180v-120H332z m480 0V504c0 165.42-134.58 300-300 300S212 669.42 212 504v-120c-33 0-60-27-60-60v-300c0-33 27-60 60-60h600c33 0 60 27 60 60V324c0 33-27 60-60 60z"  horiz-adv-x="1024" />

    
    <glyph glyph-name="transfer" unicode="&#58893;" d="M365.71428598 164.57142900999997v-82.486858a63.79885699 63.79885699 0 0 0-108.90971497-45.11085702l-130.304 130.304a73.17942901 73.17942901 0 0 0-53.211428 75.28228602A63.79885699 63.79885699 0 0 0 136.94171402 310.85714300999996h740.79085699a73.14285699 73.14285699 0 1 0 0-146.285714H365.71428598z m292.57142804 438.857142v82.48685798a63.79885699 63.79885699 0 0 0 108.90971497 45.11085702l130.304-130.304a73.17942901 73.17942901 0 0 0 53.211428-75.282286A63.79885699 63.79885699 0 0 0 887.05828598 457.14285699H146.26742899a73.14285699 73.14285699 0 1 0 0 146.285714h512z"  horiz-adv-x="1024" />

    
    <glyph glyph-name="bin" unicode="&#58952;" d="M352.37304687 407.4140625a41.66015625 41.66015625 0 0 0 41.92382813 41.34375c23.203125 0 41.92382813-18.50976563 41.92382813-41.34375v-310.60546875a41.66015625 41.66015625 0 0 0-41.92382813-41.29101563 41.66015625 41.66015625 0 0 0-41.92382812 41.34375v310.60546876z m235.40625001 0a41.66015625 41.66015625 0 0 0 41.92382812 41.34375c23.15039063 0 41.92382813-18.50976563 41.92382812-41.34375v-310.60546875a41.66015625 41.66015625 0 0 0-41.92382812-41.29101563 41.66015625 41.66015625 0 0 0-41.92382813 41.34375v310.60546876zM195.59375 19.078125C195.59375-12.404296879999947 221.9609375-37.875 254.49804687-37.875h515.00390625C802.0390625-37.875 828.40625-12.404296879999947 828.40625 19.025390620000053V542.203125H195.59375v-523.17773438zM892.26757813 677.4140625H642.78125V777.45117188c0 15.66210938-14.60742188 28.42382813-32.6953125 28.42382812H413.96679687c-18.08789063 0-32.6953125-12.76171875-32.69531249-28.4765625v-99.984375H131.78515625A41.44921875 41.44921875 0 0 1 90.125 636.17578125C90.125 613.39453125 108.74023437 594.9375 131.73242187 594.9375H892.21484375c22.9921875 0 41.60742188 18.45703125 41.60742188 41.23828125a41.44921875 41.44921875 0 0 1-41.60742188 41.23828125"  horiz-adv-x="1024" />

    
    <glyph glyph-name="opportunities" unicode="&#58940;" d="M580.440765 22.49661900000001L443.541839 22.49661900000001c-20.503986 0-37.134759-15.830547-37.134759-35.348066 0-19.509333 16.630772-35.33988 37.134759-35.33988l136.898927 0c20.50501 0 37.134759 15.83157 37.134759 35.33988C617.5745 6.666071999999986 600.944751 22.49661900000001 580.440765 22.49661900000001zM635.184577 128.51216499999998L388.801097 128.51216499999998c-20.503986 0-37.133735-15.823384-37.133735-35.33988 0-19.517519 16.629749-35.33374 37.133735-35.33374l246.38348 0c20.50501 0 37.119409 15.815197 37.119409 35.33374C672.303986 112.68878099999995 655.688563 128.51216499999998 635.184577 128.51216499999998zM511.989767 816.19235c-171.974793 0-311.861774-133.177162-311.861774-296.893874 0-87.466074 39.678698-168.486342 108.086717-224.467331 13.913894-11.386328 22.134113-28.297486 22.134113-46.275953l0-25.139563c0-32.828686 26.613124-59.442834 59.442834-59.442834l244.392126 0c32.828686 0 59.442834 26.613124 59.442834 59.442834l0 25.12933c0 17.983583 8.225335 34.898835 22.145369 46.285163 68.422346 55.967686 108.098997 137.004327 108.098997 224.468354C823.870983 683.0141639999999 683.968653 816.19235 511.989767 816.19235z"  horiz-adv-x="1024" />

    
    <glyph glyph-name="phase" unicode="&#58941;" d="M105.728 153.27999999999997c-7.04 0-12.8 5.76-12.8 12.8L92.928 346.688c0 7.04 5.76 12.8 12.8 12.8l197.824 0c7.04 0 12.8-5.76 12.8-12.8l0-180.608c0-7.04-5.76-12.8-12.8-12.8L105.728 153.27999999999997zM414.72 153.27999999999997c-7.04 0-12.8 5.76-12.8 12.8L401.92 754.112c0 7.04 5.76 12.8 12.8 12.8L612.48 766.912c7.04 0 12.8-5.76 12.8-12.8l0-588.032c0-7.04-5.76-12.8-12.8-12.8L414.72 153.27999999999997zM719.68 153.27999999999997c-7.04 0-12.8 5.76-12.8 12.8L706.88 565.12c0 7.04 5.76 12.8 12.8 12.8l197.824 0c7.04 0 12.8-5.76 12.8-12.8l0-398.976c0-7.04-5.76-12.8-12.8-12.8L719.68 153.34400000000005zM930.304 13.888000000000034c0-7.04-5.76-12.8-12.8-12.8L105.728 1.0879999999999654c-7.04 0-12.8 5.76-12.8 12.8l0 40.384c0 7.04 5.76 12.8 12.8 12.8l811.776 0c7.04 0 12.8-5.76 12.8-12.8L930.304 13.888000000000034z"  horiz-adv-x="1024" />

    
    <glyph glyph-name="types" unicode="&#59363;" d="M826.8288 285.0304l127.0272-67.3792a35.2768 35.2768 0 0 0 14.848-47.5648 34.5088 34.5088 0 0 0-14.848-14.4896l-425.3184-227.2256a36.5056 36.5056 0 0 0-33.4336 0l-425.216 227.2256a34.816 34.816 0 0 0 0 62.1568l126.7712 67.328-126.8736 67.9936a35.84 35.84 0 0 0-14.7456 48.0256 39.168 39.168 0 0 0 14.848 14.0288l126.6688 67.5328-126.7712 68.096a34.8672 34.8672 0 0 0-14.7456 47.0016 35.5328 35.5328 0 0 0 14.848 14.7456l424.96 227.4304a35.84 35.84 0 0 0 33.4336 0l425.3184-227.4304a35.4816 35.4816 0 0 0 14.848-47.5648 38.1952 38.1952 0 0 0-14.848-14.2848l-127.0272-68.0448 127.0272-67.584a35.4816 35.4816 0 0 0 14.848-47.5648 39.3216 39.3216 0 0 0-14.848-14.4384l-127.1296-67.9936zM512 196.86400000000003q175.4112 93.5424 350.7712 187.5456L752.64 443.1872l-223.7952-119.3984a29.0304 29.0304 0 0 0-11.264-3.9936h-0.8192l-3.2256-0.4096h-2.816l-2.9696 0.4096h-1.0752a34.4576 34.4576 0 0 0-11.3664 3.9936l-223.744 119.3984-110.1312-58.7776C278.1184 321.53599999999994 395.52 259.2256 512 196.86400000000003z"  horiz-adv-x="1024" />

    
    <glyph glyph-name="priority" unicode="&#59286;" d="M828.019 530.289H601.275L747.563 844.8C754.875 866.744 732.931 896 710.986 896H418.419c-14.628 0-29.256-7.311-36.572-21.944L162.419 288.91700000000003c-7.316-29.256 14.628-51.2 36.572-51.2h255.995l-73.139-329.144v-7.311c0-14.633 14.633-29.261 29.256-29.261 7.316 0 21.944 7.316 21.944 14.628L857.28 471.772c14.623 29.256 0 58.517-29.261 58.517z"  horiz-adv-x="1024" />

    
    <glyph glyph-name="filter" unicode="&#59076;" d="M927.744 250.88h-236.032c-14.848 0-29.696-14.336-29.696-28.16v-14.336c0-14.336 14.848-28.16 29.696-28.16h236.032c14.848 0 29.696 14.336 29.696 28.16v14.336c0 14.336-14.848 28.16-29.696 28.16z m0 142.336h-236.032c-14.848 0-29.696-14.336-29.696-28.16v-14.336c0-14.336 14.848-28.16 29.696-28.16h236.032c14.848 0 29.696 14.336 29.696 28.16v14.336c0 13.824-14.848 28.16-29.696 28.16z m0-284.16h-236.032c-14.848 0-29.696-14.336-29.696-28.16v-14.336c0-14.336 14.848-28.16 29.696-28.16h236.032c14.848 0 29.696 14.336 29.696 28.16v14.336c0 13.824-14.848 28.16-29.696 28.16zM854.016 722.944c-7.168 10.752-18.432 25.088-33.28 25.088H105.472c-11.264 0-25.6-14.336-29.696-25.088-7.168-10.752-3.584-28.16 3.584-38.912l250.88-266.24v-294.4c0-10.752 7.168-25.088 22.016-28.16l187.904-81.408c3.584-3.584 11.264-3.584 14.848-3.584 7.168 0 14.848 0 18.432 3.584 11.264 7.168 18.432 14.336 18.432 28.16l11.264 379.904 243.712 266.24c10.752 6.656 10.752 20.992 7.168 34.816z"  horiz-adv-x="1024" />

    
    <glyph glyph-name="sort" unicode="&#59056;" d="M701.184-10.879999999999995c0-30.08-27.584-53.12-60.352-53.12s-60.352 23.04-60.352 53.12V778.88c0 47.744 64.192 69.824 101.76 38.592l258.688-215.36a49.088 49.088 0 0 0 0-77.248c-24.32-19.328-58.752-19.328-83.008 0l-156.8 131.008V-10.879999999999995zM322.688 778.88c0 30.08 27.52 53.12 60.352 53.12 32.768 0 60.352-23.04 60.352-53.12v-789.76c0-47.744-64.256-69.824-101.952-38.592l-258.624 215.36a49.088 49.088 0 0 0 0 77.248c24.32 19.392 58.816 19.392 83.136 0l156.736-131.008V778.88z"  horiz-adv-x="1024" />

    
    <glyph glyph-name="check-fill" unicode="&#58908;" d="M511.322571 832.379007c-246.971881 0-447.189925-200.206788-447.189925-447.184809s200.218044-447.184809 447.189925-447.184809c246.978021 0 447.189925 200.206788 447.189925 447.184809S758.300592 832.379007 511.322571 832.379007L511.322571 832.379007zM767.82041 501.195166L478.605426 211.968925l-0.011256-0.016373c-13.331633-13.331633-33.667797-15.410991-49.185212-6.249331-2.87856 1.699712-5.584182 3.790326-8.055466 6.249331-0.005117 0.005117-0.005117 0.005117-0.005117 0.005117L254.825756 378.480286c-15.796778 15.808034-15.796778 41.432645 0 57.245795 15.808034 15.808034 41.437761 15.808034 57.245795 0l137.90279-137.90279 260.611529 260.611529c15.802918 15.802918 41.437761 15.802918 57.240679 0C783.628444 542.621671 783.628444 516.998083 767.82041 501.195166L767.82041 501.195166zM767.82041 501.195166"  horiz-adv-x="1024" />

    
    <glyph glyph-name="close-fill" unicode="&#58881;" d="M512 832a448 448 0 1 1 0-896A448 448 0 0 1 512 832z m217.344-609.92a39.04 39.04 0 0 0 0-55.488 39.04 39.04 0 0 0-55.488 0l-159.36 159.36-159.36-159.36a39.04 39.04 0 0 0-55.552 0 39.04 39.04 0 0 0 0 55.488l159.36 159.36-159.36 159.36a39.04 39.04 0 0 0 0 55.552 39.04 39.04 0 0 0 55.552 0l159.36-159.36 159.36 159.36a39.04 39.04 0 0 0 55.488 0 39.04 39.04 0 0 0 0-55.552l-159.36-159.36 159.36-159.36z"  horiz-adv-x="1024" />

    
    <glyph glyph-name="group" unicode="&#59366;" d="M372.536668 368.376161c0 0-0.025583 0.025583-0.025583 0.050142 0 0.036839 0.025583 0.064468 0.025583 0.090051 0 11.374048-9.441023 20.60427-21.118993 20.60427-76.603679 0-138.912793 64.965617-138.912793 144.841829 0 79.859839 62.309114 144.844899 138.912793 144.844899 11.67797 0 21.118993 9.216919 21.118993 20.603247 0 11.388375-9.441023 20.603247-21.118993 20.603247-99.883895 0-181.145663-83.463923-181.145663-186.051393 0-68.421322 36.245506-128.181381 89.963964-160.503531C146.127102 334.086194 63.582107 223.19766400000003 63.582107 92.63095599999997c0-11.388375 9.44307-20.603247 21.123087-20.603247 11.668761 0 21.11183 9.214872 21.11183 20.603247 0 140.684136 110.169145 255.115352 245.600651 255.115352C363.095645 347.746308 372.536668 356.949924 372.536668 368.376161zM701.996239 359.21040700000003c68.468394 36.663014 115.049293 107.536178 115.049293 188.988282 0 119.013581-99.207489 215.821417-221.144656 215.821417-121.946376 0-221.138516-96.80886-221.138516-215.821417 0-82.259492 47.438429-153.865343 117.007901-190.259228C346.96527 314.42234199999996 241.414305 182.67064500000004 241.414305 27.277506000000017c0-11.386328 9.44307-20.618597 21.113877-20.618597 11.664667 0 21.107737 9.232269 21.107737 20.618597 0 168.014598 140.103922 304.731376 310.704414 304.795844 1.432629-0.14224 2.771113 0.177032 4.134157 0.357134 1.919722-0.357134 3.876284-0.561795 5.9055-0.357134 170.786735-0.064468 311.035966-136.780223 311.035966-304.795844 0-11.386328 9.454326-20.618597 21.13639-20.618597 11.694343 0 21.135366 9.232269 21.135366 20.618597C957.686688 184.45631500000002 849.514013 317.24462000000005 701.996239 359.21040700000003zM595.900875 373.625722c-98.662067 0-178.917926 78.320787-178.917926 174.572968 0 96.296183 80.255859 174.615946 178.917926 174.615946 98.651834 0 178.909739-78.320787 178.909739-174.615946C774.810614 451.945485 694.552709 373.625722 595.900875 373.625722z"  horiz-adv-x="1024" />

    
    <glyph glyph-name="calendar" unicode="&#59178;" d="M872 540.5625V645.5625a7.5 7.5 0 0 1-7.5 7.5H723.875v-42.1875c0-16.5684375-13.4315625-30-30-30-16.5684375 0-30 13.4315625-30 30v42.1875H360.125v-42.1875c0-16.5684375-13.4315625-30-30-30-16.5684375 0-30 13.4315625-30 30v42.1875H159.5a7.5 7.5 0 0 1-7.5-7.5v-105h720z m0-60H152v-449.0625a7.5 7.5 0 0 1 7.5-7.5h705a7.5 7.5 0 0 1 7.5 7.5V480.5625zM723.875 713.0625h178.125c16.5684375 0 30-13.4315625 30-30v-689.0625c0-16.5684375-13.4315625-30-30-30H122c-16.5684375 0-30 13.4315625-30 30V683.0625c0 16.5684375 13.4315625 30 30 30h178.125V774c0 16.5684375 13.4315625 30 30 30 16.5684375 0 30-13.4315625 30-30v-60.9375h303.75V774c0 16.5684375 13.4315625 30 30 30 16.5684375 0 30-13.4315625 30-30v-60.9375zM302.9375 420.5625h54.375c16.5684375 0 30-13.4315625 30-30 0-16.5684375-13.4315625-30-30-30h-54.375c-16.5684375 0-30 13.4315625-30 30 0 16.5684375 13.4315625 30 30 30z m0-120h54.375c16.5684375 0 30-13.4315625 30-30 0-16.5684375-13.4315625-30-30-30h-54.375c-16.5684375 0-30 13.4315625-30 30 0 16.5684375 13.4315625 30 30 30z m0-120h54.375c16.5684375 0 30-13.4315625 30-30 0-16.5684375-13.4315625-30-30-30h-54.375c-16.5684375 0-30 13.4315625-30 30 0 16.5684375 13.4315625 30 30 30z m181.875 240h54.375c16.5684375 0 30-13.4315625 30-30 0-16.5684375-13.4315625-30-30-30h-54.375c-16.5684375 0-30 13.4315625-30 30 0 16.5684375 13.4315625 30 30 30z m0-120h54.375c16.5684375 0 30-13.4315625 30-30 0-16.5684375-13.4315625-30-30-30h-54.375c-16.5684375 0-30 13.4315625-30 30 0 16.5684375 13.4315625 30 30 30z m0-120h54.375c16.5684375 0 30-13.4315625 30-30 0-16.5684375-13.4315625-30-30-30h-54.375c-16.5684375 0-30 13.4315625-30 30 0 16.5684375 13.4315625 30 30 30z m181.875 240h54.375c16.5684375 0 30-13.4315625 30-30 0-16.5684375-13.4315625-30-30-30h-54.375c-16.5684375 0-30 13.4315625-30 30 0 16.5684375 13.4315625 30 30 30z m0-120h54.375c16.5684375 0 30-13.4315625 30-30 0-16.5684375-13.4315625-30-30-30h-54.375c-16.5684375 0-30 13.4315625-30 30 0 16.5684375 13.4315625 30 30 30z m0-120h54.375c16.5684375 0 30-13.4315625 30-30 0-16.5684375-13.4315625-30-30-30h-54.375c-16.5684375 0-30 13.4315625-30 30 0 16.5684375 13.4315625 30 30 30z"  horiz-adv-x="1024" />

    
    <glyph glyph-name="point-to" unicode="&#58930;" d="M796.014 478.02133333l-257.492 257.492c-20.11 20.11-52.709 20.11-72.819 0l-257.492-257.492c-20.11-20.11-20.11-52.709 0-72.819s52.709-20.11 72.819 0l169.585 169.585v-493.664c0-28.453 23.046-51.499 51.499-51.499s51.499 23.046 51.499 51.499v493.664l169.585-169.585c10.042-10.043 23.226-15.089 36.41-15.089s26.367 5.021 36.41 15.089c20.11 20.11 20.11 52.709 0 72.819z"  horiz-adv-x="1000" />

    
    <glyph glyph-name="point-to-right" unicode="&#59955;" d="M606.02133333 99.98599999999999l257.492 257.49199999c20.11 20.11 20.11 52.709 0 72.819l-257.49200001 257.49200001c-20.11 20.11-52.709 20.11-72.819 0s-20.11-52.709 1e-8-72.81899999l169.585-169.58500001-493.664 0c-28.45300001 0-51.499-23.04599999-51.499-51.499s23.04599999-51.499 51.499-51.499l493.664 0-169.585-169.585c-10.043-10.042-15.089-23.226-15.089-36.41s5.021-26.367 15.089-36.40999999c20.11-20.11 52.709-20.11 72.81899999-1e-8z"  horiz-adv-x="1000" />

    
    <glyph glyph-name="check" unicode="&#58944;" d="M384.119471 74.88375699999995c-11.918447 0-23.837918 4.527107-32.936133 13.573133L77.629032 360.667595c-18.196431 18.107403-18.196431 47.456848 0 65.557088 18.196431 18.107403 47.674812 18.10024 65.871243 0.007163l240.619196-239.436254 495.173776 492.739331c18.196431 18.107403 47.674812 18.107403 65.871243 0 18.196431-18.10024 18.196431-47.449685 0-65.557088L417.055604 88.46405300000004C407.956366 79.41086299999995 396.037918 74.88375699999995 384.119471 74.88375699999995z"  horiz-adv-x="1024" />

    
    <glyph glyph-name="bell" unicode="&#58917;" d="M492.19356445-45.009983199999965h23.43114272c61.62002173 0 112.75428347 46.08556247 120.13315159 104.98705381H388.63050272c7.37886815-58.90149136 58.6425837-104.98705383 120.26260543-104.98705381h-16.6995437z m397.5527032 158.19257678c-3.10689185 71.9763279-39.35396347 135.79706469-93.98347851 176.96338173V485.23289283c0 112.75428347-81.42645728 207.51448494-189.00258766 230.03945087v4.53088395c0 51.39316939-42.59030914 93.4656632-94.63074765 93.46566321-52.04043852 0-94.63074765-42.07249383-94.63074766-93.46566321v-4.53088395c-107.57613037-22.3955121-189.00258765-117.28516741-189.00258765-230.03945087v-195.21637135c-54.62951506-41.16631703-90.74713283-104.98705383-93.98347852-176.96338173H228.49611852v-0.64726914h567.39612445v0.64726914l93.85402468 0.12945383z"  horiz-adv-x="1024" />

    
    <glyph glyph-name="s-seas" unicode="&#58978;" d="M594.00000031 263.05999969000004c85.42000031-26.38000031 116.23999969-68.14000031 160.11999938-123.06 11.53999969-17.59999969 20.77999969-37.36000031 20.78000062-59.31999938 0-54.94000031-46.18000031-96.67999969-106.22000062-96.68000062H135.92C78.2-16.00000031000002 32 27.960000000000036 32 80.68000030999997c0 17.58 4.60000031 35.16 16.18000031 50.52H45.84000031c43.90000031 54.94000031 79.30000031 98.86000031 167.07999938 127.45999969 13.84000031 0 25.39999969 4.38 36.96 10.98l4.60000031 4.38c18.48 13.2 30.01999969 32.95999969 30.01999969 54.94000031 0 24.18-13.84000031 48.31999969-34.62 59.34-32.34 39.54-53.14000031 92.26000031-53.13999938 151.59999938C196.74000031 662.92000031 289.14000031 763.99999969 402.30000031 763.99999969s205.56-98.86000031 205.56-221.94c0-59.29999969-18.48-112.02-53.14000031-151.59999938-13.84000031-15.36-34.63999969-35.14000031-34.63999969-59.30000062 0-22.00000031 11.56000031-43.93999969 30-54.91999969 9.28000031-4.39999969 43.92-13.2 43.92-13.2z m374.91999938-96.69999938c13.84000031-15.36 20.77999969-32.94 23.08000031-57.12 0-48.34000031-41.56000031-85.69999969-94.68-85.70000062h-67.00000031c6.96 17.59999969 11.56000031 32.98000031 11.56000031 52.74 0 35.17999969-13.84000031 68.11999969-36.96 96.68000062-53.11999969 63.70000031-95.44000031 114.25999969-190.15999969 142.8l-9.24 4.39999969h-2.30000062a45.40000031 45.40000031 0 0 0-18.48 4.39999969c-2.29999969 0-2.29999969 0-2.29999969 2.20000031 2.29999969 6.6 9.24 13.18000031 13.84000031 17.58v2.20000031l4.63999969 4.39999969c43.87999969 54.91999969 69.28000031 120.82000031 69.28000031 188.94 0 63.72-18.48 120.84-53.1 169.2a155.95999969 155.95999969 0 0 0 46.17999938 6.6c101.59999969 0 182.44000031-90.12 182.44000031-197.74000031 0-52.74-18.48-98.89999969-48.48-134.05999969-11.56000031-10.98-30.01999969-28.56-30.01999969-50.52 0-19.78000031 9.19999969-37.36000031 25.39999969-48.34000031 9.22000031-4.39999969 39.25999969-10.99999969 39.25999969-10.99999969 76.2-21.96 97.75999969-61.51999969 137.04-107.65999969z m-543.18-37.2l59.28 140.91999938a10.93999969 10.93999969 0 0 1-1.2 10.66000031 12.19999969 12.19999969 0 0 1-9.96 4.99999969h-118.5c-4.00000031 0-7.72000031-1.86-9.93999938-4.99999969a10.93999969 10.93999969 0 0 1-1.2-10.66000031l59.25999938-140.94a12 12 0 0 1 11.12000062-7.15999969 12 12 0 0 1 11.13999938 7.15999969z"  horiz-adv-x="1024" />

    
    <glyph glyph-name="record" unicode="&#58901;" d="M599.95599365 805.50915528H416.26651001c-22.56536865 0-40.52142334-20.18490601-40.52142334-45.1018982 0-25.01257324 18.05245972-45.19747925 40.52142334-45.19747925H601.20349122c21.41262818 0 39.46508789 20.18490601 39.46508788 45.19747925C640.57299805 785.3250732500001 622.52136231 805.50915528 599.95599365 805.50915528z m199.53369141-30.13275147H707.97988891a78.2965393 78.2965393 0 0 0 1.44030762-14.96914673c0-37.95391846-27.3666687-75.32940674-59.91778564-75.32940674H368.44714355c-34.27981567 0-61.6456604 37.37548828-61.6456604 75.32940674 0 5.02212524 0.57678223 10.04425049 1.53671265 14.9699707H215.67730713C141.25921631 775.37722778 122.91918945 732.88320922 122.91918945 671.65365601v-606.59857178c0-65.76800537 26.21392823-102.5642395 98.32571412-102.56423951h572.67388916c72.20901489 0 107.2567749 28.87701416 107.2567749 102.56423951V671.65365601c0 61.22955323-32.83950805 103.72357177-101.68670654 103.72357177zM705.48324585 176.50588989000005h-397.91381836c-14.69146729 0-29.28735352 18.05987549-29.28735351 32.83538818 0 14.67993164 12.38681031 27.33123779 27.07827758 27.3312378h396.76190186c14.69146729 0 27.07827758-11.49197388 28.13461304-27.3312378 0-14.7755127-10.08215332-32.83538818-24.77362061-32.83538818z m1.63146972 160.60665894h-397.91381835c-14.69146729 0-24.00485229 15.83926391-24.0048523 30.61477661 0 14.77633667 12.38681031 29.55267334 27.07827759 29.55267334H709.03704834c14.69146729 0 27.07745362-13.71340943 28.13378906-29.55267334 0-14.7755127-15.45941162-30.61477661-30.05447388-30.61477661z m0 164.953125h-397.91381835c-14.69146729 0-24.00485229 15.83843994-24.0048523 30.61477661s12.38681031 29.55267334 27.07827759 29.55267334H709.03704834c14.69146729 0 27.07745362-13.7142334 28.13378906-29.55267334 0-14.77633667-15.45941162-30.61477661-30.05447388-30.61477661z"  horiz-adv-x="1024" />

    
    <glyph glyph-name="plan" unicode="&#58994;" d="M632.4875 666.76875c-5.9625 0-11.25 2.08125-15.69375 6.3-4.5 4.21875-8.2125 9.28125-11.25 15.24375s-5.2875 12.15-6.75 18.45-2.19375 11.53125-2.25 15.75L596.54375 834l1.8 0C603.125 834 608.075 833.26875 613.19375 831.75s11.08125-4.33125 17.94375-8.55 15.24375-10.35 25.14375-18.45c9.9-8.1 22.33125-18.73125 37.29375-31.89375 16.2-14.4 28.96875-26.6625 38.25-36.84375s16.48125-18.73125 21.6-25.65c5.11875-6.91875 8.2125-12.76875 9.45-17.55 1.18125-4.78125 1.74375-9 1.8-12.6l0-13.5L632.4875 666.7125 632.4875 666.76875 632.4875 666.76875zM736.775 329.6625c27.5625 0 53.325-5.0625 77.2875-15.3 24.01875-10.125 45-24.1875 62.94375-42.1875 18-18 32.0625-38.98125 42.3-62.94375 10.18125-23.9625 15.24375-49.78125 15.24375-77.34375s-5.11875-53.38125-15.24375-77.34375c-10.2375-23.9625-24.3-44.94375-42.3-62.94375-17.94375-18-38.925-32.0625-62.94375-42.3C790.1-60.825000000000045 764.3375-66 736.775-66c-26.94375 0-52.48125 5.175-76.3875 15.24375-24.01875 10.2375-45 24.3-62.94375 42.3-18 18-32.23125 38.98125-42.69375 62.94375-10.51875 23.9625-15.75 49.78125-15.75 77.34375s5.23125 53.38125 15.75 77.34375c10.51875 23.9625 24.69375 44.94375 42.69375 62.94375 17.8875 18 38.86875 32.0625 62.94375 42.1875C684.35 324.54375000000005 709.83125 329.6625 736.775 329.6625L736.775 329.6625zM849.10625 100.44375000000002c5.4 0 10.2375 2.98125 14.4 9 4.1625 5.90625 6.3 13.1625 6.3 21.54375s-2.1375 15.58125-6.3 21.54375c-4.1625 6.01875-9 9-14.4 9l-85.44375 0 0 79.0875c0 4.8375-2.53125 9-7.65 12.65625s-12.15 5.4-21.09375 5.4c-9 0-15.69375-1.74375-20.25-5.4-4.5-3.6-6.69375-7.81875-6.69375-12.65625l0-98.8875c-1.18125-4.8375-1.8-8.325-1.8-10.74375 0-8.4375 2.08125-15.58125 6.24375-21.54375 4.21875-6.01875 9-9 14.45625-9L849.10625 100.44375000000002 849.10625 100.44375000000002zM480.55625 158.88750000000005l0-0.1125L258.48125 158.77499999999998c-15.58125 0-28.9125 5.5125-39.99375 16.59375s-16.59375 24.525-16.59375 40.10625c0 15.46875 5.5125 28.6875 16.59375 39.54375 11.08125 10.74375 24.4125 16.14375 39.99375 16.14375l261.61875 0C542.9375 306.54375000000005 572.8625 334.725 610.04375 355.70624999999995c37.125 21.0375 78.1875 31.5 123.13125 31.5l16.14375 0c5.45625 0 10.51875-0.5625 15.3-1.8L764.61875 609.225l-131.2875 0c-16.2 0-30.2625 3.6-42.24375 10.8C579.10625 627.225 569.2625 636.50625 561.5 647.86875 553.68125 659.2875 548 671.38125 544.4 684.2625 540.8 697.2 538.94375 709.63125 538.94375 721.6125L538.94375 834 194.6375 834C180.85625 834 167.6375 830.23125 155.09375 822.75 142.49375 815.26875 131.35625 805.81875 121.79375 794.4c-9.5625-11.3625-17.38125-23.79375-23.4-37.29375-5.9625-13.5-9-26.55-9-39.09375l0-613.18125c0-14.9625 3.88125-29.30625 11.7-43.2 7.7625-13.725 17.55-26.04375 29.25-36.7875s24.3-19.4625 37.74375-26.04375 25.93125-9.9 37.35-9.9l318.2625 0c-13.78125 20.98125-24.58125 43.36875-32.34375 67.33125-7.81875 24.075-11.7 49.44375-11.7 76.44375l0 13.5C479.65625 150.45000000000005 479.9375 154.61249999999995 480.55625 158.88750000000005L480.55625 158.88750000000005zM258.48125 496.8375l337.1625 0c15.525 0.05625 28.74375-5.5125 39.54375-16.59375S651.3875 455.775 651.3875 440.25s-5.45625-28.74375-16.2-39.54375S611.225 384.45 595.5875 384.45L258.48125 384.45c-15.58125 0-28.9125 5.45625-39.99375 16.2S201.8375 424.6125 201.8375 440.25s5.5125 28.9125 16.59375 39.99375S242.9 496.8375 258.48125 496.8375z"  horiz-adv-x="1024" />

    
    <glyph glyph-name="time" unicode="&#59212;" d="M504.201383 807.633417c-184.479595 0-342.401324-115.460662-405.584341-277.868566-13.929244-35.804461-23.344684-73.842799-27.322276-113.483634a438.508195 438.508195 0 0 1-2.200108-43.755549c0-115.113761 45.016263-219.851197 118.26759-297.751405 47.812959-50.849108 107.661022-90.194208 174.97922-113.483634 44.497447-15.393595 92.193749-23.871687 141.858892-23.871687 49.665143 0 97.362468 8.477069 141.858892 23.871687 67.318198 23.289426 127.167285 62.634526 174.97922 113.483634 73.249281 77.900208 118.267591 182.637644 118.26759 297.751405 0.002047 239.919255-195.186448 435.107749-435.104679 435.107749zM701.733249 107.030921c-9.073656-9.066493-21.120017-14.051017-33.936927-14.051017a47.672766 47.672766 0 0 0-33.92567 14.051017L466.767819 274.127613c-5.492084 5.503341-9.395998 12.001335-11.918447 19.848048-0.399089 1.257643-0.701988 2.537799-1.164522 4.587481-0.26606 1.302669-0.450255 2.63092-0.718361 4.727675a48.412616 48.412616 0 0 0-0.241501 4.817725V604.09679c0 26.457582 21.521153 47.975664 47.968502 47.975665 26.468838 0.002047 47.997154-21.518083 47.997154-47.977711v-36.08587h-0.002047v-240.079914l153.045675-153.034418c9.057283-9.064446 14.040784-21.122063 14.040785-33.94409 0-12.824073-4.986571-24.869411-14.041808-33.919531z"  horiz-adv-x="1024" />

    
    <glyph glyph-name="file" unicode="&#59825;" d="M961.55 54.60000000000002V609c0 67.05-62.1 60.3-62.1 60.3h-352.35c-22.05 0-31.95 10.8-31.95 10.8s-15.3 25.2-41.4 65.7C446.3 787.2 413 780.45 413 780.45H139.4C63.35 780.45 62 708 62 708v-649.35c0-80.55 62.1-71.1 62.1-71.1h780.75c66.15 0 56.7 67.05 56.7 67.05z m-146.25 384.3H208.7c-20.7 0-37.8 18-37.8 39.6 0 20.7 15.75 39.6 37.8 39.6h606.15c20.7 0 37.8-18 37.8-39.6 0.45-20.25-15.3-39.6-37.35-39.6z"  horiz-adv-x="1024" />

    
    <glyph glyph-name="employees" unicode="&#59213;" d="M85.333333-42.66666699999996a341.333333 341.333333 0 1 0 682.666667 0H85.333333z m341.333334 384c-141.44 0-256 114.56-256 256s114.56 256 256 256 256-114.56 256-256-114.56-256-256-256z m314.154666-95.274666A320.213333 320.213333 0 0 0 980.608-42.66666699999996H853.333333c0 111.36-42.666667 212.736-112.512 288.725334z m-86.314666 97.109333A340.48 340.48 0 0 1 768 597.333333a339.797333 339.797333 0 0 1-43.306667 166.528A213.333333 213.333333 0 0 0 896 554.666667a213.290667 213.290667 0 0 0-241.493333-211.498667z"  horiz-adv-x="1024" />

    
    <glyph glyph-name="l-record" unicode="&#59102;" d="M799.84 752H672V768a32 32 0 0 1-64 0v-16h-192V768a32 32 0 0 1-64 0v-16H223.712C188.576 752 160 721.984 160 685.088V592h704V685.088c0 36.896-28.768 66.912-64.16 66.912M640 400a32 32 0 0 0 0-64h-256a32 32 0 0 0 0 64h256z m-288-192a32 32 0 0 0 32 32h256a32 32 0 0 0 0-64h-256a32 32 0 0 0-32 32z m480 320H160v-477.12c0-36.864 28.608-66.88 63.744-66.88h576.512c35.136 0 63.744 30.016 63.744 66.88V528h-32z"  horiz-adv-x="1024" />

    
    <glyph glyph-name="leave" unicode="&#59022;" d="M711.99999969 544.00000031c94.99999969-0.73999969 171.79999969-78.24 171.80000062-173.7 0-95.92000031-77.53999969-173.7-173.18000062-173.7-3.49999969 0-7.00000031 0.10000031-10.45999969 0.3C665.48 85.30000030999997 558.56 4.0000003100000185 432.00000031 4.0000003100000185c-154.63999969 0-280.00000031 121.39999969-280.00000031 271.26V643.99999969h559.99999969v-99.99999938z m0-44.84000062V275.20000030999995c0-11.41999969-0.73999969-22.69999969-2.13999938-33.76000031h0.75999938c70.96000031 0 128.47999969 57.70000031 128.48000062 128.88 0 70.69999969-56.80000031 128.11999969-127.10000062 128.86000031zM282.00000031 864A30 30 0 0 0 312.00000031 834v-120a30 30 0 0 0-60 0v120A30 30 0 0 0 282.00000031 864z m139.99999969 0A30 30 0 0 0 452 834v-120a30 30 0 0 0-60 0v120A30 30 0 0 0 422 864z m139.99999969 0A30 30 0 0 0 591.99999969 834v-120a30 30 0 0 0-60 0v120A30 30 0 0 0 561.99999969 864z m-399.99999938-900h540a30 30 0 0 0 0-60h-540a30 30 0 0 0 0 60z"  horiz-adv-x="1024" />

    
    <glyph glyph-name="overtime" unicode="&#59023;" d="M789.63999969 354.67999969000005L519.12000031 660.6l-12.70000031-11.94a18.6 18.6 0 0 0-7.68-4.39999969 219.06 219.06 0 0 0-60.79999969-218.90000062 18.67999969 18.67999969 0 0 0-12.80000062-5.07999938h-0.55999969a18.67999969 18.67999969 0 0 0-13.03999969 5.88L137.06 718.2799996900001a18.67999969 18.67999969 0 0 0 0.82000031 26.4 219.16000031 219.16000031 0 0 0 239.41999969 40.26 19.00000031 19.00000031 0 0 0 0.48 0.48l56.58 53.20000031a93.88000031 93.88000031 0 0 0 128.64-136.78000031l-16.66000031-15.63999938L820.68000031 376.00000031a67.75999969 67.75999969 0 0 0 89.13999938-64.36000031 67.87999969 67.87999969 0 0 0-81.67999969-66.37999969 18.91999969 18.91999969 0 0 0-1.09999969-1.24000031l-161.28-165.66h113.89999969c83.23999969 0 151.00000031-67.74 151.00000031-151.00000031a18.67999969 18.67999969 0 0 0-18.72-18.66h-679.8a18.67999969 18.67999969 0 0 0-18.68000062 18.68000062c0 83.23999969 67.74 151.00000031 151.00000031 150.99999938H613.59999969l180.46000031 185.32000031a67.8 67.8 0 0 0-4.44 91.00000031zM179.76000031 643.99999969l163.68-175.51999969A120 120 0 1 0 179.76000031 643.99999969z"  horiz-adv-x="1024" />

    
    <glyph glyph-name="trip" unicode="&#59024;" d="M72.00000031 64.00000031000002h879.99999938a40.00000031 40.00000031 0 1 0 0-80.00000062H72.00000031a40.00000031 40.00000031 0 1 0 0 80.00000062z m915.39999938 484.83999938c10.00000031-16.2 2.92000031-38.50000031-14.04-44.07999938L255.86 267.85999969c-29.14000031-9.58000031-60.78-1.02-82.38 22.26L37.82 435.40000031c-12 12.85999969-4.30000031 35.4 12.37999969 36.19999969l21.64000031 1.06000031a59.80000031 59.80000031 0 0 0 32.68000031-7.96000031l87.99999938-50.4a69.25999969 69.25999969 0 0 1 60.36-4.48000031l143.84000062 56.92000031L219.00000031 721.39999969c-12.72 22.06000031-3.40000031 51.64000031 19.09999969 59.78000062 11.92000031 4.27999969 26.74000031 4.48000031 44.35999969-4.78000031 43.84000031-23.04 224.17999969-171.66 278.20000031-216.43999969 9.97999969-8.29999969 22.09999969-13.00000031 34.66000031-13.44l2.67999938-0.08000062 198.20000062 78.46000031a125.65999969 125.65999969 0 0 0 67.15999969 7.39999969c36.49999969-6.07999969 88.24000031-25.39999969 124.06000031-83.43999938z"  horiz-adv-x="1024" />

    
    <glyph glyph-name="go-out" unicode="&#59026;" d="M392.618667 317.994667c17.386667-49.450667 64.256-84.885333 119.381333-84.885334s101.994667 35.413333 119.381333 84.906667h344.746667v-254.741333c0-70.293333-56.661333-127.274667-126.570667-127.274667H174.442667c-69.909333 0-126.570667 56.96-126.570667 127.274667v254.72h344.746667z m238.762666 84.906666c-17.386667 49.450667-64.256 84.885333-119.381333 84.885334s-101.994667-35.434667-119.381333-84.906667H47.872v84.949333c0 70.293333 56.661333 127.274667 126.570667 127.274667h675.114666c69.909333 0 126.570667-56.96 126.570667-127.274667v-84.949333h-344.746667z m7.210667 212.202667v84.906667H385.408v-84.906667h-126.570667v127.36c0 46.890667 37.781333 84.864 84.394667 84.864H680.746667c46.613333 0 84.394667-37.973333 84.394666-84.842667v-127.36h-126.570666z"  horiz-adv-x="1024" />

    
    <glyph glyph-name="approval-17" unicode="&#59027;" d="M624.170667 354.816c-41.194667-40.277333-68.864-70.570667-82.986667-90.88-36.821333-52.970667-44.629333-106.432-44.629333-150.506667 0-55.466667 14.72-107.456 40.469333-152.234666H76.693333c-18.773333 0-34.026667 16.298667-34.026666 36.394666v45.610667c0 3.413333 0.533333 6.912 1.664 10.538667 10.112 30.805333 31.146667 58.090667 62.506666 81.173333 24.362667 17.962667 55.232 33.536 91.712 46.357333 56.661333 19.904 115.370667 27.882667 135.125334 30.250667 1.066667 0.128-0.917333 51.434667-0.277334 52.416 0.128 0.213333 0 18.922667-10.965333 31.274667a3.370667 3.370667 0 0 1-0.810667 0.896c-32.469333 27.456-60.117333 66.56-80.277333 113.493333a4.032 4.032 0 0 1-3.072 2.496c-28.245333 4.138667-54.336 34.752-63.594667 75.818667-10.154667 45.013333 1.344 87.338667 27.434667 104.277333a4.373333 4.373333 0 0 1 1.898667 3.733333c-1.365333 86.058667 19.2 154.346667 61.226666 202.986667C319.253333 861.525333 393.429333 874.666667 446.101333 874.666667c52.693333 0 126.848-13.141333 180.906667-75.754667 42.026667-48.64 62.592-116.906667 61.226667-202.986667a4.394667 4.394667 0 0 1 1.898666-3.733333c26.069333-16.938667 37.568-59.242667 27.434667-104.277333-9.28-41.066667-35.370667-71.68-63.616-75.818667a4.032 4.032 0 0 1-3.093333-2.474667c-6.656-15.616-14.4-30.72-23.168-45.226666l-3.541334-9.578667zM768-85.333333c-117.824 0-213.333333 95.509333-213.333333 213.333333s95.509333 213.333333 213.333333 213.333333 213.333333-95.509333 213.333333-213.333333-95.509333-213.333333-213.333333-213.333333z m88.896 268.266666h-134.869333l19.925333 20.501334a18.773333 18.773333 0 0 1 0 25.898666 17.472 17.472 0 0 1-25.152 0l-50.282667-51.797333a18.282667 18.282667 0 0 1-4.608-8.277333l-0.021333-0.106667a12.544 12.544 0 0 1-0.149333-0.64c0-0.106667-0.042667-0.213333-0.064-0.298667l-0.064-0.469333-0.085334-0.448-0.042666-0.362667a22.186667 22.186667 0 0 1-0.064-0.533333l-0.021334-0.341333-0.042666-0.554667v-0.874667c0-4.864 1.856-9.536 5.184-12.970666a17.472 17.472 0 0 1 12.586666-5.333334h177.770667a18.112 18.112 0 0 1 17.770667 18.304 18.112 18.112 0 0 1-17.770667 18.304z m-177.792-109.866666h134.869333l-19.925333-20.501334a18.773333 18.773333 0 0 1 0-25.898666 17.472 17.472 0 0 1 25.152 0l50.282667 51.797333a18.282667 18.282667 0 0 1 4.608 8.277333l0.021333 0.106667a12.544 12.544 0 0 1 0.149333 0.64c0 0.106667 0.042667 0.213333 0.064 0.298667l0.064 0.469333 0.085334 0.448 0.042666 0.362667a19.626667 19.626667 0 0 1 0.064 0.533333l0.021334 0.341333 0.042666 0.554667v0.874667a18.538667 18.538667 0 0 1-5.184 12.970666 17.472 17.472 0 0 1-12.586666 5.333334h-177.770667a18.112 18.112 0 0 1-17.770667-18.304 18.112 18.112 0 0 1 17.770667-18.304z"  horiz-adv-x="1024" />

    
    <glyph glyph-name="approval-18" unicode="&#59044;" d="M810.666667 380.458667c-13.866667 2.346667-28.138667 3.541333-42.666667 3.541333-141.376 0-256-114.624-256-256 0-89.045333 45.461333-167.466667 114.432-213.333333H128a85.333333 85.333333 0 0 0-85.333333 85.333333V768a85.333333 85.333333 0 0 0 85.333333 85.333333h597.333333a85.333333 85.333333 0 0 0 85.333334-85.333333v-387.541333zM426.666667 341.33333300000004a192 192 0 1 1 0 384 192 192 0 0 1 0-384zM160 277.33333300000004a32 32 0 0 1 0-64h277.333333a32 32 0 0 1 0 64h-277.333333z m0-149.333333a32 32 0 0 1 0-64h192a32 32 0 0 1 0 64h-192z m194.325333 369.28l-51.52 52.992a14.442667 14.442667 0 0 0-3.370666 14.784c1.706667 5.184 6.186667 8.96 11.605333 9.749333l70.784 10.666667 31.850667 67.541333a14.592 14.592 0 0 0 26.389333-0.064l31.616-67.733333 70.656-10.88a14.442667 14.442667 0 0 0 11.584-9.813333 14.442667 14.442667 0 0 0-3.413333-14.72l-51.626667-52.821334 11.648-72.490666a14.570667 14.570667 0 0 0-13.802667-19.157334h-0.192a15.466667 15.466667 0 0 0-6.762666 1.642667l-63.232 35.157333-63.146667-34.752a14.549333 14.549333 0 0 0-21.397333 15.125334l12.330666 74.752zM768-85.33333300000004c-117.824 0-213.333333 95.509333-213.333333 213.333333s95.509333 213.333333 213.333333 213.333333 213.333333-95.509333 213.333333-213.333333-95.509333-213.333333-213.333333-213.333333z m28.437333 199.850666v26.517334c21.077333 9.92 35.562667 30.528 35.562667 54.336C832 228.86400000000003 803.349333 256 768 256s-64-27.136-64-60.629333c0-23.808 14.485333-44.416 35.562667-54.336v-26.517334H704a42.666667 42.666667 0 0 1-42.666667-42.666666v-38.186667h213.333334v38.186667a42.666667 42.666667 0 0 1-42.666667 42.666666h-35.562667z m-128-94.293333V0h199.125334v20.202667h-199.125334z"  horiz-adv-x="1024" />

    
    <glyph glyph-name="approval-16" unicode="&#59033;" d="M624.170667 354.81600000000003c-41.194667-40.277333-68.864-70.570667-82.986667-90.88-36.821333-52.970667-44.629333-106.432-44.629333-150.506667 0-55.466667 14.72-107.456 40.469333-152.234666H76.693333c-18.773333 0-34.026667 16.298667-34.026666 36.394666v45.610667c0 3.413333 0.533333 6.912 1.664 10.538667 10.112 30.805333 31.146667 58.090667 62.506666 81.173333 24.362667 17.962667 55.232 33.536 91.712 46.357333 56.661333 19.904 115.370667 27.882667 135.125334 30.250667 1.066667 0.128-0.917333 51.434667-0.277334 52.416 0.128 0.213333 0 18.922667-10.965333 31.274667a3.370667 3.370667 0 0 1-0.810667 0.896c-32.469333 27.456-60.117333 66.56-80.277333 113.493333a4.032 4.032 0 0 1-3.072 2.496c-28.245333 4.138667-54.336 34.752-63.594667 75.818667-10.154667 45.013333 1.344 87.338667 27.434667 104.277333a4.373333 4.373333 0 0 1 1.898667 3.733333c-1.365333 86.058667 19.2 154.346667 61.226666 202.986667C319.253333 861.525333 393.429333 874.666667 446.101333 874.666667c52.693333 0 126.848-13.141333 180.906667-75.754667 42.026667-48.64 62.592-116.906667 61.226667-202.986667a4.394667 4.394667 0 0 1 1.898666-3.733333c26.069333-16.938667 37.568-59.242667 27.434667-104.277333-9.28-41.066667-35.370667-71.68-63.616-75.818667a4.032 4.032 0 0 1-3.093333-2.474667c-6.656-15.616-14.4-30.72-23.168-45.226666l-3.541334-9.578667zM768-85.33333300000004c-117.824 0-213.333333 95.509333-213.333333 213.333333s95.509333 213.333333 213.333333 213.333333 213.333333-95.509333 213.333333-213.333333-95.509333-213.333333-213.333333-213.333333z m-0.042667 185.92l73.514667-73.557334a19.477333 19.477333 0 0 1 27.52 27.52l-73.514667 73.557334 73.28 73.344a19.456 19.456 0 0 1-27.52 27.52L768 155.626667l-73.216 73.28a19.456 19.456 0 0 1-27.52-27.52l73.216-73.28-73.408-73.450667a19.456 19.456 0 1 1 27.498667-27.52l73.386666 73.450667z"  horiz-adv-x="1024" />

    
    <glyph glyph-name="approval-15" unicode="&#59034;" d="M987.434667 558.442667L521.962667 765.205333a21.824 21.824 0 0 1-17.770667 0L38.72 558.442667c-9.813333-4.352-16.32-15.424-16.32-27.754667 0-12.373333 6.506667-23.424 16.32-27.776l465.450667-206.784c5.674667-2.56 12.117333-2.56 17.792 0l361.898666 160.768v-164.48c-19.413333-10.602667-32.874667-33.706667-32.874666-60.522667 0-26.858667 13.461333-49.92 32.853333-60.544v-57.386666h47.68v57.386666c19.413333 10.602667 32.896 33.706667 32.896 60.544s-13.482667 49.92-32.896 60.544v185.621334l55.893333 24.853333c9.813333 4.352 16.32 15.402667 16.32 27.776 0 12.330667-6.506667 23.402667-16.298666 27.733333zM513.088 254.613333a50.986667 50.986667 0 0 0-20.8 4.48L202.112 388.010667v-178.005334c0-145.792 211.626667-189.546667 277.781333-189.546666h66.325334c49.557333 0 277.802667 43.754667 277.802666 189.546666v178.005334l-290.176-128.917334a50.773333 50.773333 0 0 0-20.757333-4.48z"  horiz-adv-x="1024" />

    
    <glyph glyph-name="approval-14" unicode="&#59035;" d="M661.333333 853.333333v-149.333333a85.333333 85.333333 0 0 1 85.333334-85.333333h149.333333v-618.666667a85.333333 85.333333 0 0 0-85.333333-85.333333H213.333333a85.333333 85.333333 0 0 0-85.333333 85.333333V768a85.333333 85.333333 0 0 0 85.333333 85.333333h448zM288 704a32 32 0 0 1 0-64h234.666667a32 32 0 0 1 0 64h-234.666667z m0-170.666667a32 32 0 0 1 0-64h448a32 32 0 0 1 0 64h-448z m365.824-229.12l-131.242667-120.362666-79.189333 68.458666c-12.586667 11.669333-34.197333 11.669333-48.597333 0l-127.765334-108.544c-14.4-11.690667-14.4-33.386667-1.792-46.741333 7.189333-8.341333 17.984-11.690667 26.986667-11.690667 9.002667 0 18.005333 3.349333 25.194667 11.690667l102.570666 86.826667L499.2 113.70666700000004a36.693333 36.693333 0 0 1 50.389333 0l158.741334 147.285333 26.410666-20.928c6.933333-6.528 13.888-3.264 15.637334 4.885333l17.365333 104.405334c1.749333 8.149333-5.205333 14.677333-13.888 13.034666l-116.437333-27.733333c-8.704-1.621333-10.453333-8.149333-3.477334-14.677333l19.904-15.786667zM661.333333 853.333333l234.666667-234.666666h-149.333333a85.333333 85.333333 0 0 0-85.333334 85.333333V853.333333z"  horiz-adv-x="1024" />

    
    <glyph glyph-name="approval-13" unicode="&#59036;" d="M981.184 537.856v-535.701333c0-13.397333-2.730667-25.173333-8.192-35.242667-5.44-10.026667-11.52-18.474667-18.133333-25.173333-9.728-9.770667-19.584-16.597333-29.568-20.629334-9.962667-3.946667-20.138667-5.973333-30.464-5.973333H123.52c-23.616 0.618667-42.773333 8.853333-57.28 24.746667a83.584 83.584 0 0 0-22.741333 55.829333V537.856L129.877333 806.1866669999999c0 1.792 6.997333 9.642667 20.906667 23.36 13.973333 13.738667 35.797333 21.504 65.472 23.381333H808.32c3.072 1.194667 15.893333-2.602667 38.656-11.456 22.762667-8.832 38.656-29.461333 47.786667-61.802667l86.4-241.792z m-112.768 66.858667l-53.674667 161.130666H203.52l-47.296-161.130666h712.170667z m-177.834667-403.392c11.84 11.925333 17.770667 28.074667 17.770667 48.554666 0 20.437333-5.930667 36.629333-17.770667 48.554667-11.84 11.946667-28.074667 18.154667-48.64 18.773333H376.405333c-20.629333-0.618667-36.864-6.912-48.64-18.773333-11.776-11.84-17.770667-28.053333-17.770666-48.554667 0-20.416 5.930667-36.629333 17.770666-48.554666 11.84-11.925333 28.010667-17.877333 48.64-17.877334h265.578667c20.544 0.064 36.778667 5.973333 48.64 17.877334z"  horiz-adv-x="1024" />

    
    <glyph glyph-name="approval-12" unicode="&#59037;" d="M963.989333 810.666667c18.133333 0 30.122667-12.053333 30.122667-30.122667v-180.693333c0-18.069333-11.989333-30.122667-30.122667-30.122667-18.069333 0-30.122667 12.053333-30.122666 30.122667V708.266667L548.437333 310.72c-6.101333-6.037333-18.069333-6.037333-24.170666-6.037333-12.032 0-18.069333 6.037333-18.069334 12.053333l-84.330666 96.384L78.592 39.65866700000004c-6.08-6.037333-18.133333-12.053333-24.149333-12.053334-12.053333 0-18.005333 0-24.106667 6.016a29.226667 29.226667 0 0 0 0 42.176L391.765333 479.36c6.08 6.016 18.133333 6.016 24.085334 6.016 12.117333 0 18.069333 0 24.149333-6.016l84.266667-102.4L891.776 750.421333h-108.48c-18.090667 0-30.122667 12.053333-30.122667 30.122667S765.205333 810.666667 783.296 810.666667h180.693333zM150.826667 389.013333c0-26.453333 4.522667-51.669333 11.029333-76.181333l-91.498667-102.101333a419.2 419.2 0 0 0-40 178.282666C30.336 621.8879999999999 219.178667 810.666667 451.989333 810.666667a420.032 420.032 0 0 0 295.402667-121.002667l-84.629333-86.016c-54.336 53.354667-128.725333 86.549333-210.773334 86.549333-166.058667 0-301.184-135.104-301.184-301.184z m602.368 0c0 14.4-2.304 28.138667-4.224 41.984l98.901333 102.037334a418.389333 418.389333 0 0 0 25.792-144c0-232.874667-188.8-421.653333-421.653333-421.653334A419.882667 419.882667 0 0 0 183.04 64.29866700000002l82.645333 89.92c51.434667-40.896 115.648-66.368 186.304-66.368 166.08 0 301.184 135.104 301.184 301.162666z m-228.906667-144.554666c11.754667 0 42.965333 0 67.370667 24.32l99.562666 102.656c-9.173333-124.693333-112.170667-223.36-239.189333-223.36-54.997333 0-105.173333 19.157333-145.706667 50.24l114.432 124.586666 32.533334-37.056c12.288-24.704 39.210667-41.386667 71.018666-41.386666z m-108.373333 301.184c-11.754667 0-42.965333 0-69.056-26.090667l-133.845334-149.546667c-0.533333 6.378667-1.92 12.522667-1.92 19.029334 0 133.056 107.882667 240.938667 240.938667 240.938666 65.706667 0 125.184-26.517333 168.597333-69.162666l-92.458666-94.016-45.717334 55.296c-23.616 23.552-50.474667 23.552-66.56 23.552z"  horiz-adv-x="1024" />

    
    <glyph glyph-name="approval-11" unicode="&#59038;" d="M149.333333 832h213.333334a85.333333 85.333333 0 0 0 85.333333-85.333333v-213.333334a85.333333 85.333333 0 0 0-85.333333-85.333333H149.333333a85.333333 85.333333 0 0 0-85.333333 85.333333V746.666667a85.333333 85.333333 0 0 0 85.333333 85.333333z m512-512h213.333334a85.333333 85.333333 0 0 0 85.333333-85.333333v-213.333334a85.333333 85.333333 0 0 0-85.333333-85.333333H661.333333a85.333333 85.333333 0 0 0-85.333333 85.333333V234.66666699999996a85.333333 85.333333 0 0 0 85.333333 85.333333z m225.898667 245.205333a32 32 0 0 0 60.202667-21.653333l-42.666667-118.592a32 32 0 0 0-38.528-20.053333l-124.8 34.048a32 32 0 0 0 16.810667 61.738666l64.917333-17.706666c-73.429333 144.234667-177.258667 220.586667-313.792 231.786666a32 32 0 1 0 5.248 63.786667c154.965333-12.714667 275.178667-97.813333 358.4-252.821333l14.208 39.466666zM136.746667 202.794667A32 32 0 1 0 76.586667 224.42666699999995l42.666666 118.592a32 32 0 0 0 38.528 20.053333l124.8-34.048a32 32 0 0 0-16.810666-61.738667l-64.917334 17.706667c31.466667-61.802667 68.501333-111.104 111.189334-148.117333 57.002667-49.472 124.309333-77.226667 202.602666-83.669334a32 32 0 1 0-5.248-63.786666c-90.538667 7.424-169.386667 39.616-235.946666 96.234666-47.146667 40.106667-87.978667 92.373333-122.453334 156.586667l-14.208-39.466667z"  horiz-adv-x="1024" />

    
    <glyph glyph-name="approval-10" unicode="&#59039;" d="M193.749333 187.09333300000003C122.410667 187.09333300000003 64 245.07733299999995 64 315.96799999999996V767.104C64 837.973333 122.410667 896 193.749333 896H842.453333c71.36 0 129.749333-58.026667 129.749334-128.896v-451.114667c0-70.890667-58.389333-128.917333-129.749334-128.917333H193.749333zM534.4 403.669333c8.533333-0.042667 16.746667 3.178667 22.976 8.981334l227.626667 214.4a29.376 29.376 0 0 1 0 43.328 33.92 33.92 0 0 1-45.994667 0L534.4 477.653333l-107.093333 100.821334a33.92 33.92 0 0 1-45.973334 0l-130.112-122.474667a29.376 29.376 0 0 1 0-43.306667 33.92 33.92 0 0 1 46.016 0l107.093334 100.842667 107.093333-100.864a33.493333 33.493333 0 0 1 22.976-8.96z m389.184-295.381333c26.773333 0 48.64-21.269333 48.64-47.253333 0-26.005333-21.866667-47.274667-48.64-47.274667h-158.144l51.093333-66.154667a46.378667 46.378667 0 0 0-9.728-66.176c-8.746667-6.378667-19.029333-9.450667-29.162666-9.450666a49.109333 49.109333 0 0 0-38.933334 18.901333l-94.890666 122.88H392.405333l-94.869333-122.88a49.109333 49.109333 0 0 0-38.933333-18.901333 49.493333 49.493333 0 0 0-29.184 9.450666 46.464 46.464 0 0 0-9.728 66.176l51.093333 66.154667H112.64c-26.773333 0-48.64 21.269333-48.64 47.274667 0 25.984 21.866667 47.253333 48.64 47.253333h810.922667z"  horiz-adv-x="1024" />

    
    <glyph glyph-name="approval-9" unicode="&#59042;" d="M264.490667 810.666667h25.621333A179.136 179.136 0 0 0 469.333333 631.4666669999999V426.666667h-204.8A179.136 179.136 0 0 0 85.333333 605.866667v25.6C85.333333 730.4533329999999 165.546667 810.666667 264.490667 810.666667z m0-853.333334A179.157333 179.157333 0 0 0 85.333333 136.53333299999997v25.6a179.2 179.2 0 0 0 179.2 179.2H469.333333v-204.8a179.2 179.2 0 0 0-179.2-179.2h-25.642666z m495.018666 0h-25.621333A179.136 179.136 0 0 0 554.666667 136.53333299999997V341.33333300000004h204.8a179.136 179.136 0 0 0 179.2-179.2v-25.6c0-98.986667-80.213333-179.2-179.157334-179.2z m0 853.333334A179.157333 179.157333 0 0 0 938.666667 631.4666669999999v-25.6a179.2 179.2 0 0 0-179.2-179.2H554.666667v204.8A179.2 179.2 0 0 0 733.866667 810.666667h25.642666z"  horiz-adv-x="1024" />

    
    <glyph glyph-name="approval-8" unicode="&#59043;" d="M343.530667 109.58933300000001c13.226667 0 25.685333-2.432 37.333333-7.253333a98.048 98.048 0 0 0 31.125333-20.394667c9.024-8.682667 15.850667-18.986667 20.693334-30.869333 4.8-11.904 7.210667-24.426667 7.210666-37.546667 0-13.098667-2.410667-25.6-7.232-37.525333a90.624 90.624 0 0 0-20.672-30.869333 106.581333 106.581333 0 0 0-31.125333-20.778667 91.221333 91.221333 0 0 0-37.333333-7.872c-13.866667 0-26.517333 2.624-37.952 7.872a110.186667 110.186667 0 0 0-30.72 20.778667 87.829333 87.829333 0 0 0-20.693334 30.869333 99.093333 99.093333 0 0 0-7.210666 37.546667c0 13.098667 2.410667 25.813333 7.232 37.525333a92.608 92.608 0 0 0 20.693333 30.869333 100.906667 100.906667 0 0 0 30.698667 20.373334 96.426667 96.426667 0 0 0 37.952 7.253333z m431.658666-2.026666a101.546667 101.546667 0 0 0 37.952-7.253334 91.776 91.776 0 0 0 31.125334-20.394666c8.618667-8.661333 15.658667-18.965333 20.672-30.869334 5.226667-11.904 7.829333-24.405333 7.829333-37.525333s-2.602667-25.621333-7.829333-37.546667a96.917333 96.917333 0 0 0-20.693334-30.656 99.178667 99.178667 0 0 0-31.104-20.778666 94.037333 94.037333 0 0 0-37.952-7.872 89.856 89.856 0 0 0-37.333333 7.872 102.08 102.08 0 0 0-30.72 20.778666 98.133333 98.133333 0 0 0-20.693333 30.677334 91.093333 91.093333 0 0 0-7.829334 37.525333c0 13.312 2.624 25.813333 7.829334 37.546667a105.237333 105.237333 0 0 0 20.693333 30.848 92.053333 92.053333 0 0 0 30.72 20.394666 97.749333 97.749333 0 0 0 37.333333 7.253334z m174.464 592.426666c19.285333 0 34.346667-2.624 45.184-7.893333 10.645333-5.226667 18.261333-11.690667 22.890667-19.349333 4.608-7.68 6.613333-15.744 6.229333-24.426667a86.976 86.976 0 0 0-3.626666-22.4 7940.544 7940.544 0 0 0-35.328-102.698667c-8.234667-23.402667-16.469333-46.4-24.298667-69.397333a1426.069333 1426.069333 0 0 1-18.069333-54.293333c-9.024-27.84-20.48-46.997333-34.346667-57.898667-13.845333-10.709333-30.72-16.149333-50.773333-16.149333H312.405333l15.658667-93.824h523.029333c33.109333 0 49.792-14.336 49.792-42.773334 0-13.930667-3.221333-25.813333-9.856-35.925333-6.613333-10.090667-19.477333-15.146667-38.933333-15.146667H308.181333c-13.845333 0-25.493333 3.050667-34.730666 9.301334a77.269333 77.269333 0 0 0-23.296 24.405333 148.544 148.544 0 0 0-15.04 32.896 296.469333 296.469333 0 0 0-8.832 33.28c-0.618667 4.266667-2.624 14.336-5.632 30.293333-3.2 15.936-7.04 35.904-11.434667 59.925334a12331.861333 12331.861333 0 0 1-15.061333 80.298666c-5.632 29.44-11.050667 59.306667-16.661334 89.173334-13.269333 70.229333-28.117333 148.522667-44.586666 234.666666H55.04c-10.453333 0-19.072 2.645333-25.898667 7.893334a73.557333 73.557333 0 0 0-17.28 18.965333A67.136 67.136 0 0 0 2.602667 782.293333 109.184 109.184 0 0 0 0 805.312c0 13.930667 4.608 25.429333 14.058667 34.496C23.466667 848.896 35.946667 853.333333 52.010667 853.333333H156.8c13.866667 0 24.896-2.026667 33.130667-6.250666 8.234667-4.245333 14.869333-9.493333 19.669333-15.744 4.821333-6.250667 8.234667-12.906667 10.453333-19.776 2.005333-7.04 3.818667-12.906667 5.226667-17.749334 1.386667-5.653333 2.794667-13.312 4.202667-23.402666l4.224-30.677334c2.005333-12.501333 4.202667-25.813333 6.229333-39.744h709.717333z"  horiz-adv-x="1024" />

    
    <glyph glyph-name="reimbursement" unicode="&#59031;" d="M810.666667 380.458667c-13.866667 2.346667-28.138667 3.541333-42.666667 3.541333-141.376 0-256-114.624-256-256 0-67.413333 26.048-128.746667 68.650667-174.464l-30.762667-27.050667a21.333333 21.333333 0 0 0-27.434667-0.64l-78.186666 62.656a21.333333 21.333333 0 0 1-27.861334-1.024l-64.896-60.288a21.333333 21.333333 0 0 0-27.861333-1.024l-78.528 62.912a21.333333 21.333333 0 0 1-27.050667-0.32L129.792-85.333333H128a85.333333 85.333333 0 0 0-85.333333 85.333333V768a85.333333 85.333333 0 0 0 85.333333 85.333333h597.333333a85.333333 85.333333 0 0 0 85.333334-85.333333v-387.541333zM245.333333 341.333333a32 32 0 0 1 0-64h192a32 32 0 0 1 0 64h-192z m0 192a32 32 0 0 1 0-64h362.666667a32 32 0 0 1 0 64h-362.666667z m0 192a32 32 0 0 1 0-64h362.666667a32 32 0 0 1 0 64h-362.666667zM768-85.333333c-117.824 0-213.333333 95.509333-213.333333 213.333333s95.509333 213.333333 213.333333 213.333333 213.333333-95.509333 213.333333-213.333333-95.509333-213.333333-213.333333-213.333333z m105.237333 185.536h-84.778666v37.653333h84.778666c7.893333-0.576 15.424 2.837333 19.626667 8.874667a16.96 16.96 0 0 1 0 19.669333c-4.074667 6.037333-11.733333 9.450667-19.626667 8.874667h-54.805333l54.677333 48.576a17.557333 17.557333 0 0 1 6.293334 13.290666 17.962667 17.962667 0 0 1-6.293334 13.312 23.146667 23.146667 0 0 1-29.866666 0l-77.866667-68.906666-77.738667 68.906666a23.04 23.04 0 0 1-29.994666 0 17.557333 17.557333 0 0 1-6.293334-13.312c0-4.992 2.346667-9.770667 6.293334-13.290666l54.912-48.576h-51.328c-11.221333-0.576-19.989333-8.746667-19.989334-18.773334 0-10.005333 8.746667-18.197333 19.989334-18.773333h84.778666v-37.525333h-84.906666c-11.605333 0-21.098667-8.405333-21.098667-18.773334 0-10.346667 9.386667-18.773333 21.12-18.773333h84.885333v-43.776c0-10.453333 9.493333-18.88 21.226667-18.88s21.226667 8.426667 21.226667 18.88v43.797333h84.778666c11.605333 0 21.098667 8.405333 21.098667 18.773334 0 10.346667-9.386667 18.773333-21.12 18.773333z"  horiz-adv-x="1024" />

    
    <glyph glyph-name="approval-7" unicode="&#59045;" d="M981.333333 365.46133299999997a89.664 89.664 0 0 1-7.338666 0.298667h-176c-48.597333 0-88-39.189333-88-87.509333 0-48.341333 39.402667-87.530667 88-87.530667h176c2.474667 0 4.906667 0.106667 7.338666 0.298667v-146.154667C981.333333-3.477333000000044 941.930667-42.66666699999996 893.333333-42.66666699999996H130.666667C82.069333-42.66666699999996 42.666667-3.477333000000044 42.666667 44.86400000000003v466.773333c0 48.341333 39.402667 87.530667 88 87.530667h762.666666c48.597333 0 88-39.189333 88-87.530667v-146.176z m-68.842666 277.461334H173.44c8.938667 6.506667 19.029333 11.306667 29.738667 14.101333l573.269333 150.677333c46.912 12.330667 95.104-14.976 107.690667-60.992l28.352-103.786666z m-114.496-306.346667h154.005333c16.213333 0 29.333333-13.034667 29.333333-29.162667v-58.346666c0-16.106667-13.141333-29.162667-29.333333-29.162667h-154.005333a58.517333 58.517333 0 0 0-58.666667 58.346667 58.517333 58.517333 0 0 0 58.666667 58.346666z m7.338666-94.805333c20.266667 0 36.672 16.341333 36.672 36.48s-16.426667 36.48-36.672 36.48c-20.266667 0-36.672-16.341333-36.672-36.48s16.426667-36.48 36.672-36.48z"  horiz-adv-x="1024" />

    
    <glyph glyph-name="approval-6" unicode="&#59046;" d="M938.666667 413.76A254.826667 254.826667 0 0 1 810.666667 448c-141.376 0-256-114.624-256-256 0-76.458667 33.514667-145.088 86.677333-192H85.333333a85.333333 85.333333 0 0 0-85.333333 85.333333V597.333333a85.333333 85.333333 0 0 0 85.333333 85.333334h277.333334v-42.666667a106.666667 106.666667 0 0 1 213.333333 0v42.666667h277.333333a85.333333 85.333333 0 0 0 85.333334-85.333334v-183.573333zM186.410667 291.41333299999997c-2.133333-6.357333-10.730667-10.602667-32.170667-19.072-34.325333-14.826667-62.208-42.368-68.629333-76.266666-2.133333-12.693333 8.576-25.408 21.44-25.408h255.232c12.864 0 23.594667 12.714667 21.44 25.408-6.421333 36.010667-32.170667 61.44-68.629334 76.266666-19.306667 8.469333-27.882667 12.714667-30.016 16.938667v2.133333c19.285333 21.162667 32.170667 52.949333 32.170667 86.826667 0 55.082667-34.325333 91.093333-81.493333 91.093333-47.189333 0-81.514667-36.010667-81.514667-91.093333 0-31.765333 10.730667-65.664 32.170667-86.826667zM416 448a32 32 0 0 1 0-64h192a32 32 0 0 1 0 64h-192z m0-149.333333a32 32 0 0 1 0-64h85.333333a32 32 0 0 1 0 64h-85.333333zM810.666667-21.33333300000004c-117.824 0-213.333333 95.509333-213.333334 213.333333s95.509333 213.333333 213.333334 213.333333 213.333333-95.509333 213.333333-213.333333-95.509333-213.333333-213.333333-213.333333z m28.437333 199.850666v26.517334c21.077333 9.92 35.562667 30.528 35.562667 54.336C874.666667 292.86400000000003 846.016 320 810.666667 320s-64-27.136-64-60.629333c0-23.808 14.485333-44.416 35.562666-54.336v-26.517334H746.666667a42.666667 42.666667 0 0 1-42.666667-42.666666v-38.186667h213.333333v38.186667a42.666667 42.666667 0 0 1-42.666666 42.666666h-35.562667z m-128-94.293333V64h199.125333v20.202667h-199.125333zM384 789.333333h170.666667v-149.333333a85.333333 85.333333 0 1 0-170.666667 0V789.333333z"  horiz-adv-x="1024" />

    
    <glyph glyph-name="approval-19" unicode="&#59047;" d="M213.333333 853.333333h597.333334a85.333333 85.333333 0 0 0 85.333333-85.333333v-768a85.333333 85.333333 0 0 0-85.333333-85.333333H213.333333a85.333333 85.333333 0 0 0-85.333333 85.333333V768a85.333333 85.333333 0 0 0 85.333333 85.333333z m298.666667-512a192 192 0 1 1 0 384 192 192 0 0 1 0-384z m-266.666667-64a32 32 0 0 1 0-64h362.666667a32 32 0 0 1 0 64h-362.666667z m0-149.333333a32 32 0 0 1 0-64h234.666667a32 32 0 0 1 0 64h-234.666667z m194.325334 369.28l-51.52 52.992a14.442667 14.442667 0 0 0-3.370667 14.784c1.706667 5.184 6.186667 8.96 11.605333 9.749333l70.784 10.666667 31.850667 67.541333a14.592 14.592 0 0 0 26.389333-0.064l31.616-67.733333 70.656-10.88a14.442667 14.442667 0 0 0 11.584-9.813333 14.442667 14.442667 0 0 0-3.413333-14.72l-51.626667-52.821334 11.648-72.490666a14.570667 14.570667 0 0 0-13.802666-19.157334h-0.192a15.466667 15.466667 0 0 0-6.762667 1.642667l-63.232 35.157333-63.146667-34.752a14.549333 14.549333 0 0 0-21.397333 15.125334l12.330667 74.752z m342.741333-218.517333l-162.090667-158.250667a42.666667 42.666667 0 0 1-12.202666-22.997333l-7.722667-43.157334a10.666667 10.666667 0 0 1 13.546667-12.096l44.8 13.312a42.666667 42.666667 0 0 1 17.642666 10.368l161.322667 157.397334a21.333333 21.333333 0 0 1 0 30.549333l-25.493333 24.874667a21.333333 21.333333 0 0 1-29.802667 0z"  horiz-adv-x="1024" />

    
    <glyph glyph-name="approval-5" unicode="&#59049;" d="M138.133333 704a906.624 906.624 0 0 0 37.504 44.586667c9.557333 12.138667 19.84 23.658667 30.762667 34.496l24.405333 23.637333c7.68 6.613333 16 12.437333 24.746667 17.450667a67.925333 67.925333 0 0 0 34.901333 7.744h452.096c10.773333-0.256 21.418667-2.346667 31.530667-6.186667a86.613333 86.613333 0 0 0 34.133333-24.042667c5.632-7.36 13.12-16.277333 22.144-27.136 9.002667-10.858667 17.258667-20.544 25.877334-31.402666 8.64-10.858667 19.52-25.173333 29.653333-38.762667L138.112 704z m843.178667-159.914667v-146.581333a76.949333 76.949333 0 0 0-21.632-54.954667 83.2 83.2 0 0 0-62.613333-22.357333H128.789333a88.128 88.128 0 0 0-62.997333 22.357333 74.837333 74.837333 0 0 0-23.104 54.954667v146.56a81.258667 81.258667 0 0 0 20.864 56.085333 85.12 85.12 0 0 0 67.477333 23.445334H897.066667a80.192 80.192 0 0 0 65.237333-23.466667c12.8-15.914667 19.52-35.754667 18.986667-56.042667zM564.906667 445.866667c15.658667 0.362667 24.234667 8.426667 24.597333 25.664 0.853333 6.826667-1.536 13.653333-6.485333 18.538666a22.976 22.976 0 0 1-18.858667 6.378667h-104.362667a26.709333 26.709333 0 0 1-19.029333-7.338667 23.978667 23.978667 0 0 1-7.466667-17.578666c-0.042667-7.253333 2.773333-14.208 7.850667-19.413334 5.141333-4.394667 11.84-6.634667 18.645333-6.250666h105.109334z m395.136-229.290667A77.013333 77.013333 0 0 0 981.333333 161.60000000000002v-146.602667a72.789333 72.789333 0 0 0-25.344-56.085333 87.296 87.296 0 0 0-64.832-22.72H128.874667a91.733333 91.733333 0 0 0-59.989334 23.082667 79.978667 79.978667 0 0 0-26.090666 63.786666v137.066667a79.509333 79.509333 0 0 0 21.248 56.448 88.810667 88.810667 0 0 0 67.797333 23.104h763.413333a84.650667 84.650667 0 0 0 64.810667-23.104zM583.04 69.97333300000003a24.32 24.32 0 0 1 6.698667 17.6 26.517333 26.517333 0 0 1-7.082667 17.578667 23.296 23.296 0 0 1-18.261333 7.338667H459.733333a26.688 26.688 0 0 1-18.986666-7.338667c-4.736-4.693333-7.402667-10.986667-7.466667-17.578667-0.064-6.613333 2.624-12.992 7.466667-17.6 4.992-4.949333 11.882667-7.616 18.986666-7.338666h105.066667c6.869333-0.213333 13.504 2.453333 18.261333 7.338666z"  horiz-adv-x="1024" />

    
    <glyph glyph-name="approval-4" unicode="&#59050;" d="M554.666667 554.666667h106.666666a42.666667 42.666667 0 1 0 0-85.333334h-149.333333a42.666667 42.666667 0 0 0-42.666667 42.666667v149.333333a42.666667 42.666667 0 1 0 85.333334 0v-106.666666zM515.584 896C730.922667 896 896 720.3199999999999 896 500.693333c0-161.024-215.317333-453.845333-322.986667-600.256l-7.189333-7.317333c-28.693333-29.269333-86.122667-29.269333-114.837333 7.317333C343.317333 39.530666999999994 128 339.66933300000005 128 500.714667 135.168 720.3199999999999 300.266667 896 515.584 896zM512 256c141.376 0 256 114.624 256 256S653.376 768 512 768s-256-114.624-256-256 114.624-256 256-256z"  horiz-adv-x="1024" />

    
    <glyph glyph-name="approval-3" unicode="&#59052;" d="M661.333333 853.333333v-149.333333a85.333333 85.333333 0 0 1 85.333334-85.333333h149.333333v-618.666667a85.333333 85.333333 0 0 0-85.333333-85.333333H213.333333a85.333333 85.333333 0 0 0-85.333333 85.333333V768a85.333333 85.333333 0 0 0 85.333333 85.333333h448z m-90.581333-630.762666l39.253333 164.010666a15.210667 15.210667 0 0 1-7.466666 16.810667 15.488 15.488 0 0 1-18.346667-2.474667l-216.96-213.333333a15.146667 15.146667 0 0 1-3.413333-16.64 15.381333 15.381333 0 0 1 14.229333-9.450667h96.618667l-38.826667-164.053333a15.210667 15.210667 0 0 1 7.466667-16.853333 15.488 15.488 0 0 1 18.346666 2.538666l216.469334 213.333334a15.146667 15.146667 0 0 1 3.392 16.661333 15.381333 15.381333 0 0 1-14.250667 9.450667h-96.512zM288 704a32 32 0 0 1 0-64h234.666667a32 32 0 0 1 0 64h-234.666667z m0-170.666667a32 32 0 0 1 0-64h448a32 32 0 0 1 0 64h-448zM661.333333 853.333333l234.666667-234.666666h-149.333333a85.333333 85.333333 0 0 0-85.333334 85.333333V853.333333z"  horiz-adv-x="1024" />

    
    <glyph glyph-name="approval-2" unicode="&#59053;" d="M789.333333 384c-141.376 0-256-114.624-256-256 0-89.045333 45.461333-167.466667 114.432-213.333333H106.666667a85.333333 85.333333 0 0 0-85.333334 85.333333V768a85.333333 85.333333 0 0 0 85.333334 85.333333h448v-149.333333a85.333333 85.333333 0 0 1 85.333333-85.333333h149.333333v-234.666667zM181.333333 704a32 32 0 0 1 0-64h234.666667a32 32 0 0 1 0 64h-234.666667z m0-170.666667a32 32 0 0 1 0-64h448a32 32 0 0 1 0 64h-448z m54.058667-233.984l31.36 26.282667a20.010667 20.010667 0 0 1 0 30.677333 28.501333 28.501333 0 0 1-36.608 0l-73.237333-61.354666a20.010667 20.010667 0 0 1 0-30.677334c2.901333-2.410667 6.165333-4.181333 9.6-5.290666 3.221333-1.92 7.018667-3.029333 11.050666-3.029334h301.845334a21.696 21.696 0 1 1 0 43.392H235.392z m179.648-124.672l-31.381333-26.282666a20.096 20.096 0 0 1 0-30.677334l3.882666-3.264c8.362667-6.997333 20.48-6.997333 28.864 0l77.098667 64.618667a20.096 20.096 0 0 1 0 30.656l-3.882667 3.264a22.4 22.4 0 0 1-17.344 5.077333H170.730667A21.546667 21.546667 0 0 1 149.333333 196.373333a21.546667 21.546667 0 0 1 21.397334-21.696h244.309333zM789.333333-85.33333300000004c-117.824 0-213.333333 95.509333-213.333333 213.333333s95.509333 213.333333 213.333333 213.333333 213.333333-95.509333 213.333334-213.333333-95.509333-213.333333-213.333334-213.333333z m28.437334 199.850666v26.517334c21.077333 9.92 35.562667 30.528 35.562666 54.336C853.333333 228.86400000000003 824.682667 256 789.333333 256s-64-27.136-64-60.629333c0-23.808 14.485333-44.416 35.562667-54.336v-26.517334H725.333333a42.666667 42.666667 0 0 1-42.666666-42.666666v-38.186667h213.333333v38.186667a42.666667 42.666667 0 0 1-42.666667 42.666666h-35.562666z m-128-94.293333V0h199.125333v20.202667h-199.125333zM554.666667 853.333333l234.666666-234.666666h-149.333333a85.333333 85.333333 0 0 0-85.333333 85.333333V853.333333z"  horiz-adv-x="1024" />

    
    <glyph glyph-name="approval-20" unicode="&#59055;" d="M810.666667 380.458667c-13.866667 2.346667-28.138667 3.541333-42.666667 3.541333-141.376 0-256-114.624-256-256 0-89.045333 45.461333-167.466667 114.432-213.333333H128a85.333333 85.333333 0 0 0-85.333333 85.333333V768a85.333333 85.333333 0 0 0 85.333333 85.333333h448v-149.333333a85.333333 85.333333 0 0 1 85.333333-85.333333h149.333334v-238.208zM202.666667 704a32 32 0 0 1 0-64h234.666666a32 32 0 0 1 0 64h-234.666666z m0-170.666667a32 32 0 0 1 0-64h448a32 32 0 0 1 0 64h-448z m258.176-277.333333l-139.434667 118.656A30.250667 30.250667 0 0 1 299.733333 384c-8.106667 0-15.893333-3.285333-21.653333-9.173333l-137.408-117.333334a32.597333 32.597333 0 0 1 2.602667-42.88 30.208 30.208 0 0 1 41.6-1.28l84.138666 62.058667v-243.52c0-17.6 13.845333-31.872 30.912-31.872s30.890667 14.272 30.890667 31.872V275.39200000000005l86.869333-63.530667c12.245333-8.789333 28.8-7.296 39.402667 3.541334A32.64 32.64 0 0 1 460.842667 256zM768-85.33333300000004c-117.824 0-213.333333 95.509333-213.333333 213.333333s95.509333 213.333333 213.333333 213.333333 213.333333-95.509333 213.333333-213.333333-95.509333-213.333333-213.333333-213.333333z m105.237333 185.536h-84.778666v37.653333h84.778666c7.893333-0.576 15.424 2.837333 19.626667 8.874667a16.96 16.96 0 0 1 0 19.669333c-4.074667 6.037333-11.733333 9.450667-19.626667 8.874667h-54.805333l54.677333 48.576a17.557333 17.557333 0 0 1 6.293334 13.290666 17.962667 17.962667 0 0 1-6.293334 13.312 23.146667 23.146667 0 0 1-29.866666 0l-77.866667-68.906666-77.738667 68.906666a23.04 23.04 0 0 1-29.994666 0 17.557333 17.557333 0 0 1-6.293334-13.312c0-4.992 2.346667-9.770667 6.293334-13.290666l54.912-48.576h-51.328c-11.221333-0.576-19.989333-8.746667-19.989334-18.773334 0-10.005333 8.746667-18.197333 19.989334-18.773333h84.778666v-37.525333h-84.906666c-11.605333 0-21.098667-8.405333-21.098667-18.773334 0-10.346667 9.386667-18.773333 21.12-18.773333h84.885333v-43.776c0-10.453333 9.493333-18.88 21.226667-18.88s21.226667 8.426667 21.226667 18.88v43.797333h84.778666c11.605333 0 21.098667 8.405333 21.098667 18.773334 0 10.346667-9.386667 18.773333-21.12 18.773333zM576 853.333333l234.666667-234.666666h-149.333334a85.333333 85.333333 0 0 0-85.333333 85.333333V853.333333z"  horiz-adv-x="1024" />

    
    <glyph glyph-name="approval-1" unicode="&#59054;" d="M233.322667 189.14133300000003c64.106667-55.594667 144.725333-92.373333 233.152-101.546666l-111.232-208.298667a26.709333 26.709333 0 0 0-17.557334-7.082667c-3.52 0-3.52 0 0 0-10.538667 0-17.557333 7.082667-21.077333 14.186667l-35.136 127.530667-126.464-35.434667c-7.04-3.541333-17.557333 0-21.077333 7.082667-3.52 7.082667-7.04 14.165333-3.52 21.248l102.912 182.314666z m345.258666-98.282666c86.869333 14.186667 164.906667 54.848 225.941334 113.130666l109.290666-193.621333c3.52-7.082667 3.52-17.706667-3.498666-21.248-3.52-7.082667-14.058667-10.624-21.077334-7.082667l-126.485333 35.413334-35.114667-127.509334c3.498667-10.645333-3.52-17.706667-14.058666-17.706666a19.306667 19.306667 0 0 0-17.557334 10.624l-117.44 208zM510.293333 128C300.202667 128 128 300.97066700000005 128 512S300.202667 896 510.293333 896C720.341333 896 896 726.485333 896 515.456 896 304.42666699999995 723.797333 128 510.293333 128z m-103.189333 192h3.904l97.130667 48.512L605.226667 320c7.765333 0 15.552 0 23.317333 4.053333 3.882667 4.032 7.765333 12.117333 7.765333 20.202667l-11.648 109.141333 73.813334 80.853334c3.904 8.064 7.786667 16.149333 3.904 24.234666 0 8.085333-7.786667 16.170667-15.552 16.170667l-104.917334 20.202667-50.496 97.024c-7.786667 16.149333-31.082667 16.149333-38.869333 0l-50.496-97.024-104.917333-20.202667c-7.765333-4.053333-11.648-8.106667-15.552-16.170667-3.882667-8.085333 0-16.170667 3.904-24.256l73.813333-80.853333-11.648-109.12c-3.882667-8.106667 0-16.170667 7.765333-20.224 3.882667-4.032 7.765333-4.032 11.648-4.032z"  horiz-adv-x="1024" />

    
    <glyph glyph-name="application" unicode="&#58880;" d="M380.49951594 775.71345563q24.16263281 0 41.35527562-16.72797657t17.19264281-40.89061031l0-232.33301062q0-24.16263281-17.19264281-41.35527563t-41.35527562-17.19264281l-232.33301063 0q-24.16263281 0-40.89061031 17.19264281t-16.72797656 41.35527563l0 232.33301062q0 24.16263281 16.72797656 40.89061031t40.89061031 16.72797657l232.33301063 0zM380.49951594 311.04743438q24.16263281 0 41.35527562-16.72797657t17.19264281-40.89061031l0-233.26234312q0-24.16263281-17.19264281-40.89061032t-41.35527562-16.72797656l-232.33301063 0q-24.16263281 0-40.89061031 16.72797656t-16.72797656 40.89061032l0 233.26234312q0 24.16263281 16.72797656 40.89061031t40.89061031 16.72797657l232.33301063 0zM846.09486969 311.04743438q24.16263281 0 40.89061031-16.72797657t16.72797656-40.89061031l0-233.26234312q0-24.16263281-16.72797656-40.89061032t-40.89061031-16.72797656l-232.33301063 0q-24.16263281 0-41.35527562 16.72797656t-17.19264281 40.89061032l0 233.26234312q0 24.16263281 17.19264281 40.89061031t41.35527562 16.72797657l232.33301063 0zM975.27202344 673.48693125q18.58664063-18.58664063 18.58664062-43.67860594t-18.58664062-42.74927437l-172.85575969-172.85575969q-18.58664063-18.58664063-43.21393969-18.58664063t-43.21393968 18.58664063l-172.85575969 172.85575969q-17.65730906 17.65730906-17.65730906 42.74927437t17.65730906 43.67860594l172.85575969 172.85575969q18.58664063 17.65730906 43.21393968 17.65730906t43.21393969-17.65730906z"  horiz-adv-x="1026" />

    
    <glyph glyph-name="product" unicode="&#58963;" d="M504.74193506 442.06451602c-18.14516104 0-36.29032295 3.62903203-50.80645108 10.88709697L170.87096797 594.48387099C149.09677403 601.7419350600001 138.20967705 616.2580649399999 138.20967705 634.40322597c0 18.14516104 10.88709698 32.66129004 29.03225801 43.54838702l286.69354892 145.16129004c14.51612901 7.25806494 36.29032295 10.88709698 54.43548399 10.88709697s36.29032295-3.62903203 50.80645107-10.88709697l283.06451602-137.90322598c18.14516104-10.88709698 29.032258-25.40322597 29.03225889-43.54838701s-10.88709698-32.66129004-29.03225889-43.54838701l-286.69354805-145.16129004c-10.88709698-7.25806494-32.66129004-10.88709698-50.80645195-10.88709697z m-58.06451602-508.06451602c-10.88709698 0-18.14516104 3.62903203-29.032258 7.25806494L167.24193506 71.90322597C138.20967705 86.41935497999998 112.80645195 119.08064502000002 112.80645195 144.48387099V503.75806494c0 25.40322597 18.14516104 43.54838701 43.54838701 43.54838701 7.25806494 0 18.14516104-3.62903203 25.40322598-7.25806494l254.03225801-130.64516104c29.032258-14.51612901 54.43548398-47.17741904 54.4354831-72.58064501v-355.64516192c0-29.032258-21.77419394-47.17741904-43.54838701-47.17741904z m134.27419395 0c-25.40322597 0-43.54838701 18.14516104-43.54838701 43.54838701v355.64516104c0 29.032258 21.77419394 58.06451602 54.43548399 72.58064589l254.032258 134.27419307c7.25806494 3.62903203 18.14516104 7.25806494 25.40322597 7.25806494 25.40322597 0 43.54838701-18.14516104 43.54838702-43.54838701v-355.64516192c0-29.032258-21.77419394-58.06451602-54.43548399-72.58064502l-254.03225801-134.27419306c-7.25806494-3.62903203-14.51612901-7.25806494-25.40322597-7.25806494z"  horiz-adv-x="1024" />

    
    <glyph glyph-name="leads" unicode="&#58966;" d="M820.99047852 323.10827636V615.78405762C820.99047852 715.32019043 740.2409668 795.98730469 640.70483398 795.98730469c-99.53613281 0-180.20324708-80.66711426-180.20324707-180.20324708v-463.48571777c0-42.68188477-34.60693359-77.28881836-77.20642089-77.28881836-42.68188477 0-77.2064209 34.60693359-77.20642091 77.28881836V444.97412109c70.94421387 25.04882813 113.46130372 97.64099122 100.77209473 171.79870606-12.68920898 74.15771484-77.04162598 128.37524414-152.27050781 128.37524413-75.22888184 0-139.58129883-54.2175293-152.27050781-128.37524413-12.68920898-74.15771484 29.82788086-146.66748047 100.77209473-171.79870606v-292.67578125c0-99.53613281 80.66711426-180.20324708 180.20324707-180.20324707 99.53613281 0 180.20324708 80.66711426 180.20324707 180.20324707V615.78405762c0 42.68188477 34.60693359 77.28881836 77.20642089 77.28881835 42.68188477 0 77.2064209-34.60693359 77.20642091-77.28881836V323.02587890999996c-70.94421387-25.04882813-113.46130372-97.64099122-100.77209473-171.79870606 12.68920898-74.15771484 77.04162598-128.37524414 152.27050781-128.37524413 75.22888184 0 139.58129883 54.2175293 152.27050781 128.37524413 12.68920898 74.15771484-29.82788086 146.66748047-100.77209473 171.79870606v0.08239746z"  horiz-adv-x="1024" />

    
    <glyph glyph-name="seas" unicode="&#58914;" d="M971.08428208 535.50585553C854.48608341 472.3738131 717.94854283 483.42053925 609.91155683 564.6139796499999c-84.89409423 64.40241556-194.69855605 64.40241556-279.59265027 0-63.90531286-48.49512927-139.18875497-72.90839547-215.63210335-69.98101334C48.0750419 497.28418068 65.25270259 600.2396728900001 107.17502998 596.42855221c56.33830558-5.13672786 112.4556762 11.54382885 159.68043236 47.39045705 123.44716958 93.62100781 283.01713509 93.62100781 406.51953873 0 74.2892367-55.78596882 168.18641225-63.40821015 248.44088001-20.10504281 28.39008775 15.63111855 62.5244729 30.82036717 76.22241344-1.54654086 13.36653873-31.98027346 1.87794395-70.42288197-25.68363931-85.99876645a64.23671466 64.23671466 0 0 0-1.27037313-0.66280361M971.08428208 317.16730372999996c-116.65343273-60.75699579-253.13573925-50.15213826-361.17272525 28.05868596-84.89409423 62.0273702-194.69855605 62.0273702-279.59265027 0-63.90531286-46.72765345-139.18875497-70.25718107-215.63210335-67.38503174C48.0750419 280.32647145 65.25270259 379.47084166 107.17502998 375.82542189000003a234.96387445 234.96387445 0 0 1 159.68043236 45.62298122c123.44716958 90.14128893 283.01713509 90.14128893 406.51953873 0 74.2892367-53.74232527 168.18641225-61.08839758 248.44088001-19.33177108 28.39008775 15.02354772 62.5244729 29.60522682 76.22241344-1.54654216 13.36653873-30.76513311 1.87794395-67.82690166-25.68363931-82.79521531l-1.27037313-0.66280359M971.08428208 93.63679130000003C854.48608341 30.50474885999995 717.94854283 41.551476320000006 609.91155683 122.74491669999998c-84.89409423 64.40241556-194.69855605 64.40241556-279.59265027 0-63.90531286-48.49512927-139.18875497-72.90839547-215.63210335-69.98101333C48.0750419 55.415117750000036 65.25270259 158.31537588000003 107.17502998 154.55948926999997c56.33830558-5.13672786 112.4556762 11.54382885 159.68043236 47.39045706 123.44716958 93.62100781 283.01713509 93.62100781 406.51953873 0 74.2892367-55.78596882 168.18641225-63.40821015 248.44088001-20.10504283 28.39008775 15.63111855 62.5244729 30.82036717 76.22241344-1.54654215 13.36653873-31.98027346 1.87794395-70.42288197-25.68363931-85.99876645l-1.27037313-0.6628036"  horiz-adv-x="1024" />

    
    <glyph glyph-name="arrow-right" unicode="&#58883;" d="M766.48579737 385.51960078L326.77415615-54.012223240000026c-16.03365117-16.03365117-41.95721778-15.91377364-57.87099052 0.2697249a41.50767568 41.50767568 0 0 0 0.23975507 58.35050157l380.88162774 380.70181142L269.2328293 763.37431494A41.47770674 41.47770674 0 0 0 268.81325703 821.72481651 40.69850098 40.69850098 0 0 0 326.68424844 822.17435859l439.80154893-436.65475781z"  horiz-adv-x="1024" />

    
    <glyph glyph-name="phone-fill" unicode="&#59014;" d="M443.19999999 315.19999999000004c-88.70000001 88.6-173.50000001 191.30000001-132.79999999 231.90000002 58.10000001 58.10000001 108.70000001 93.90000002 5.8 221.99999998-103 128.2-171.70000001 29.8-228-26.49999999-64.90000001-65-3.4-307.10000001 235.90000001-546.50000001 239.30000001-239.30000001 481.50000001-300.90000001 546.49999999-235.89999999 56.30000001 56.30000001 154.70000002 124.90000001 26.6 227.90000001s-163.90000001 52.4-222-5.80000002c-40.70000001-40.50000001-143.30000001 44.30000001-231.99999999 132.90000002z"  horiz-adv-x="1024" />

    
    <glyph glyph-name="apply-for" unicode="&#59513;" d="M329.3 650.7c-0.1-29.8-24.2-54-54.1-54.1h-2.5c-29.8 0.1-54 24.2-54.1 54.1v79.6c0.1 29.8 24.2 54 54.1 54.1h2.5c29.8-0.1 54-24.2 54.1-54.1v-79.6z m475.9 0c-0.1-29.8-24.2-54-54.1-54.1h-2.5c-29.8 0.1-54 24.2-54.1 54.1v79.6c0.1 29.8 24.2 54 54.1 54.1h2.5c29.8-0.1 54-24.2 54.1-54.1v-79.6z m0 0M885.1 671.2c-22.6 0-41.2-27.2-41.2-60.5s-30.2-60.4-67-60.4h-53.7c-36.9 0-67 27.2-67 60.4 0 33.3-30.2 60.5-67 60.5H434.9c-36.9 0-67-27.2-67-60.5s-30.2-60.4-67-60.4h-53.7c-36.9 0-67 27.2-67 60.4 0 33.3-18.5 60.5-41.2 60.5-22.6 0-41.2-30.2-41.2-67v-553.5c0.1-37 30.1-66.9 67-67h694.5c37 0.1 66.9 30.1 67 67V604.2c0 36.8-18.5 67-41.2 67zM718.5 403.7L489.3 126.4c-13.4-16-37-18.4-53.4-5.5L311 220.6c-16.2 13-18.8 36.6-5.9 52.8l2.9 3.7c13 16.2 36.6 18.8 52.9 5.9l63.5-50.7c16.4-12.9 40-10.4 53.4 5.5L657 454.6c13.3 16 36.9 18.2 52.9 5l3.6-3c16-13.2 18.2-36.9 5-52.9z m0 0"  horiz-adv-x="1024" />

    
    <glyph glyph-name="search" unicode="&#58887;" d="M887.4496-62.36159999999995l-141.568 141.568a49.8176 49.8176 0 0 0-5.4272 6.4 423.2704 423.2704 0 0 0-263.7312-91.8528 425.8816 425.8816 0 0 0-425.472 425.4208 425.9328 425.9328 0 0 0 425.472 425.4208 425.8816 425.8816 0 0 0 425.3696-425.4208 423.3728 423.3728 0 0 0-91.8528-263.7824 50.2784 50.2784 0 0 0 6.4-5.4272l141.568-141.568a50.0736 50.0736 0 0 0 0-70.7584 49.92 49.92 0 0 0-35.3792-14.6432 49.8688 49.8688 0 0 0-35.3792 14.6432zM151.3984 419.1744a325.6832 325.6832 0 0 1 325.3248-325.3248 325.6832 325.6832 0 0 1 325.2736 325.3248 325.6832 325.6832 0 0 1-325.2736 325.3248 325.6832 325.6832 0 0 1-325.4272-325.12z"  horiz-adv-x="1024" />

    
    <glyph glyph-name="circle-add" unicode="&#58912;" d="M511.829333-101.05904733C242.517333-101.05904733 24.210286 117.29676167000002 24.210286 386.55999967 24.210286 655.87199967 242.517333 874.17904767 511.829333 874.17904767 781.141333 874.17904767 999.448381 655.87199967 999.448381 386.55999967 999.448381 117.29676167000002 781.141333-101.05904733 511.829333-101.05904733ZM509.098667 783.23809567C290.304 783.23809567 120.56381 605.84228567 120.56381 387.04761867 120.56381 168.25295267 290.304-3.047619329999975 509.098667-3.047619329999975 727.942095-3.047619329999975 905.337905 168.25295267 905.337905 387.04761867 905.337905 605.84228567 727.942095 783.23809567 509.098667 783.23809567ZM707.267048 338.28571466999995C707.267048 338.28571466999995 560.932571 338.28571466999995 560.932571 338.28571466999995 560.932571 338.28571466999995 560.932571 191.95123766999995 560.932571 191.95123766999995 560.932571 165.03466666999998 539.136 143.23809567 512.219429 143.23809567 512.219429 143.23809567 512.121905 143.23809567 512.121905 143.23809567 485.205333 143.23809567 463.408762 165.03466666999998 463.408762 191.95123766999995 463.408762 191.95123766999995 463.408762 338.28571466999995 463.408762 338.28571466999995 463.408762 338.28571466999995 317.074286 338.28571466999995 317.074286 338.28571466999995 290.157714 338.28571466999995 268.361143 360.08228567000003 268.361143 386.99885667 268.361143 386.99885667 268.361143 387.09638067 268.361143 387.09638067 268.361143 414.01295267 290.157714 435.80952367 317.074286 435.80952367 317.074286 435.80952367 463.408762 435.80952367 463.408762 435.80952367 463.408762 435.80952367 463.408762 582.1439996700001 463.408762 582.1439996700001 463.408762 609.06057167 485.205333 630.85714267 512.121905 630.85714267 512.121905 630.85714267 512.219429 630.85714267 512.219429 630.85714267 539.136 630.85714267 560.932571 609.06057167 560.932571 582.1439996700001 560.932571 582.1439996700001 560.932571 435.80952367 560.932571 435.80952367 560.932571 435.80952367 707.267048 435.80952367 707.267048 435.80952367 734.183619 435.80952367 755.98019 414.01295267 755.98019 387.09638067 755.98019 387.09638067 755.98019 386.99885667 755.98019 386.99885667 755.98019 360.08228567000003 734.183619 338.28571466999995 707.267048 338.28571466999995Z"  horiz-adv-x="1024" />

    
    <glyph glyph-name="delete" unicode="&#59074;" d="M935.5 707H697v64.13c0 33-27 60-60 60H387c-33 0-60-27-60-60V707H89.5c-13.75 0-25-11.25-25-25v-10c0-13.75 11.25-25 25-25h50.187v-651.887c0-32.99 27-59.983 60-59.983h622c33 0 60 26.992 60 59.983V647H935.5c13.75 0 25 11.25 25 25v10c0 13.75-11.25 25-25 25zM387 771.022a0.901 0.901 0 0 0 0.107 0.107h249.785v0.001c0.037-0.031 0.076-0.07 0.108-0.108V707H387v64.022zM199.687-4.886999999999944l0.5 651.811H327v-0.001h370v0.001h124.187l0.5-651.811h-622zM599.561 562.919c-16.5 0-30-13.5-30-30v-424.942c0-16.5 13.5-30 30-30s30 13.5 30 30V532.919c0 16.5-13.5 30-30 30zM421.813 562.919c-16.5 0-30-13.5-30-30v-424.942c0-16.5 13.5-30 30-30s30 13.5 30 30V532.919c0 16.5-13.5 30-30 30z"  horiz-adv-x="1024" />

    
    <glyph glyph-name="edit" unicode="&#58926;" d="M422.4 294.4c6.4-6.4 12.8-12.8 25.6-12.8s19.2 6.4 25.6 6.4l480 486.4c0 6.4 6.4 19.2 6.4 25.6 0 6.4-6.4 19.2-6.4 25.6-12.8 0-19.2 6.4-25.6 6.4s-19.2-6.4-25.6-6.4l-480-486.4c-12.8-12.8-12.8-32 0-44.8zM928 563.2c-19.2 0-32-12.8-32-32v-480c0-25.6-19.2-51.2-51.2-51.2H179.2c-32 0-51.2 25.6-51.2 51.2V716.8c0 32 19.2 51.2 51.2 51.2h454.4c19.2 0 32 12.8 32 32s-12.8 32-32 32H147.2C102.4 832 64 793.6 64 748.8v-723.2c0-51.2 38.4-89.6 83.2-89.6h723.2c44.8 0 83.2 38.4 83.2 83.2v512c6.4 19.2-6.4 32-25.6 32z"  horiz-adv-x="1024" />

    
    </font>
</defs>
</svg>
